<?xml version="1.0" standalone="no"?>
<!DOCTYPE svg PUBLIC "-//W3C//DTD SVG 1.1//EN" "http://www.w3.org/Graphics/SVG/1.1/DTD/svg11.dtd" >
<svg xmlns="http://www.w3.org/2000/svg" xmlns:xlink="http://www.w3.org/1999/xlink" version="1.1">
<metadata>
Created by FontForge 20200314 at Mon Oct 20 22:59:25 2014
 By Unknown
Copyright (c) 2013 by Rui Abreu, Portugal. All rights reserved.
</metadata>
<defs>
<font id="AzoSansUberW01-Regular" horiz-adv-x="864" >
  <font-face 
    font-family="AzoSansUberW01-Regular"
    font-weight="400"
    font-stretch="normal"
    units-per-em="1000"
    panose-1="2 0 0 0 0 0 0 0 0 0"
    ascent="800"
    descent="-200"
    x-height="724"
    cap-height="724"
    bbox="-48 -221 1310 1029"
    underline-thickness="50"
    underline-position="-175"
    unicode-range="U+000D-2122"
  />
<missing-glyph horiz-adv-x="664" 
d="M260 302l-100 101l100 100l-100 101l131 131l213 -212l-101 -101l101 -100l-101 -101l101 -100l-132 -132l-212 213z" />
    <glyph glyph-name=".notdef" horiz-adv-x="664" 
d="M260 302l-100 101l100 100l-100 101l131 131l213 -212l-101 -101l101 -100l-101 -101l101 -100l-132 -132l-212 213z" />
    <glyph glyph-name="glyph1" horiz-adv-x="0" 
 />
    <glyph glyph-name="glyph1" horiz-adv-x="0" 
 />
    <glyph glyph-name="uni000D" unicode="&#xd;" horiz-adv-x="300" 
 />
    <glyph glyph-name="space" unicode=" " horiz-adv-x="300" 
 />
    <glyph glyph-name="exclam" unicode="!" horiz-adv-x="362" 
d="M20 724h322l-65 -467q-24 4 -48 6t-48 2t-48 -2t-48 -6zM41 115q0 26 11 48.5t30 39.5t44.5 27t54.5 10t54.5 -10t44.5 -27t30 -39.5t11 -48.5t-11 -49.5t-30 -40.5t-44.5 -27t-54.5 -10t-54.5 10t-44.5 27t-30 40.5t-11 49.5z" />
    <glyph glyph-name="quotedbl" unicode="&#x22;" horiz-adv-x="510" 
d="M286 762h213l-33 -306h-180v306zM24 762h214v-306h-181z" />
    <glyph glyph-name="numbersign" unicode="#" horiz-adv-x="702" 
d="M92 173h-84l45 154h84l20 70h-84l45 154h84l50 173h170l-50 -173h68l50 173h170l-50 -173h84l-45 -154h-84l-20 -70h84l-45 -154h-84l-50 -173h-170l50 173h-68l-50 -173h-170zM375 327l20 70h-68l-20 -70h68z" />
    <glyph glyph-name="dollar" unicode="$" horiz-adv-x="560" 
d="M46 315q30 -21 61 -36t58 -24.5t49 -14t36 -4.5q20 0 26 7t6 15q0 6 -4 11.5t-15 7.5q-7 1 -27 4.5t-46 11.5t-55 22t-53 36q-26 23 -39 53t-13 71q0 69 37 117.5t106 69.5v138h212v-135q60 -12 105 -34v-199q-59 32 -107.5 43.5t-71.5 11.5q-17 0 -24 -5.5t-7 -13.5
q0 -10 6 -14.5t14 -6.5q13 -4 33 -8t43.5 -10.5t47.5 -17t45 -26.5q31 -23 47.5 -56.5t16.5 -77.5q0 -66 -38 -116t-110 -73v-138h-212v133q-35 7 -68 17.5t-59 24.5v216z" />
    <glyph glyph-name="percent" unicode="%" horiz-adv-x="925" 
d="M228 362q-51 0 -88 13.5t-61.5 38.5t-36.5 59.5t-12 75.5t12 75.5t36.5 59t61.5 38.5t88 14t88 -14t61.5 -38.5t36.5 -59t12 -75.5t-12 -75.5t-36.5 -59.5t-61.5 -38.5t-88 -13.5zM610 724h198l-493 -724h-198zM228 514q14 0 18.5 11t4.5 24t-4.5 24t-18.5 11t-18.5 -11
t-4.5 -24t4.5 -24t18.5 -11zM499 175q0 41 12 75.5t36.5 59t61.5 38.5t88 14t88 -14t61.5 -38.5t36.5 -59t12 -75.5t-12 -75.5t-36.5 -59.5t-61.5 -38.5t-88 -13.5t-88 13.5t-61.5 38.5t-36.5 59.5t-12 75.5zM674 175q0 -13 4.5 -24t18.5 -11t18.5 11t4.5 24t-4.5 24
t-18.5 11t-18.5 -11t-4.5 -24z" />
    <glyph glyph-name="ampersand" unicode="&#x26;" horiz-adv-x="810" 
d="M25 189q0 61 39.5 110t114.5 75q-51 35 -74 75.5t-23 84.5q0 42 18.5 78.5t54 64t86 43.5t113.5 16q59 0 107.5 -14.5t83 -40t53.5 -61t19 -77.5q0 -55 -32.5 -102.5t-103.5 -83.5l50 -43l110 125l147 -123l-112 -128l112 -98l-143 -144l-109 100q-42 -23 -96 -40
t-130 -17q-66 0 -118.5 13.5t-89.5 39.5t-57 63t-20 84zM358 465q18 16 28 27.5t10 27.5q0 15 -10 25t-28 10t-28 -10t-10 -25q0 -16 10 -27.5t28 -27.5zM275 211q0 -20 17.5 -29.5t39.5 -9.5q11 0 25.5 2.5t28.5 8.5l-75 70q-36 -16 -36 -42z" />
    <glyph glyph-name="quotesingle" unicode="'" horiz-adv-x="290" 
d="M24 762h242l-33 -306h-176z" />
    <glyph glyph-name="parenleft" unicode="(" horiz-adv-x="458" 
d="M208 -116q-39 40 -72 89.5t-57 109t-37.5 129.5t-13.5 150t13.5 150t37.5 129.5t57 109t72 89.5h238q-34 -41 -65 -92.5t-55 -112t-38.5 -129t-14.5 -144.5t14.5 -144.5t38.5 -129t55 -112t65 -92.5h-238v0z" />
    <glyph glyph-name="parenright" unicode=")" horiz-adv-x="458" 
d="M12 -116q34 41 65 92.5t55 112t38.5 129t14.5 144.5t-14.5 144.5t-38.5 129t-55 112t-65 92.5h238q39 -40 72 -89.5t57 -109t37.5 -129.5t13.5 -150t-13.5 -150t-37.5 -129.5t-57 -109t-72 -89.5h-238v0z" />
    <glyph glyph-name="asterisk" unicode="*" horiz-adv-x="470" 
d="M158 724h154l-31 -118h-92zM289 600l102 65l49 -146l-122 -7zM79 665l102 -65l-29 -88l-122 7zM240 449l75 54l94 -77l-125 -91zM61 426l94 77l75 -54l-44 -114z" />
    <glyph glyph-name="plus" unicode="+" horiz-adv-x="604" 
d="M196 267h-156v190h156v156h212v-156h156v-190h-156v-156h-212v156z" />
    <glyph glyph-name="comma" unicode="," horiz-adv-x="379" 
d="M87 185h252l-110 -332h-204z" />
    <glyph glyph-name="hyphen" unicode="-" horiz-adv-x="327" 
d="M30 474h267v-226h-267v226z" />
    <glyph glyph-name="period" unicode="." horiz-adv-x="388" 
d="M40 143q0 32 11.5 60t32.5 49t49 33t61 12t61 -12t49 -33t32.5 -49t11.5 -60t-11.5 -60t-32.5 -49t-49 -33t-61 -12t-61 12t-49 33t-32.5 49t-11.5 60z" />
    <glyph glyph-name="slash" unicode="/" horiz-adv-x="497" 
d="M297 762h208l-305 -800h-208z" />
    <glyph glyph-name="zero" unicode="0" horiz-adv-x="710" 
d="M88 96q-34 45 -47 109t-13 157t13 157t47 109q43 58 113.5 82.5t153.5 24.5t153.5 -24.5t113.5 -82.5q34 -45 47 -109t13 -157t-13 -157t-47 -109q-43 -58 -113.5 -82.5t-153.5 -24.5t-153.5 24.5t-113.5 82.5zM331 219q3 -17 9 -23.5t15 -6.5t15 6.5t9 23.5q3 20 4 57.5
t1 85.5t-1 86t-4 57q-3 17 -9 23.5t-15 6.5t-15 -6.5t-9 -23.5q-3 -20 -4 -57.5t-1 -85.5t1 -86t4 -57z" />
    <glyph glyph-name="one" unicode="1" horiz-adv-x="503" 
d="M154 419l-118 -25v252l416 89v-735h-298v419z" />
    <glyph glyph-name="two" unicode="2" horiz-adv-x="609" 
d="M201 290q21 30 36 53t24.5 40t14 30.5t4.5 25.5q0 30 -22 43t-55 13q-19 0 -39.5 -3.5t-41 -9.5t-40 -13t-35.5 -14v224q49 23 111 39.5t137 16.5q79 0 134 -20.5t89.5 -53t50 -73.5t15.5 -82q0 -43 -15 -80.5t-39 -71.5t-55 -64t-63 -58l1 -2h161v-230h-570l-1 2z" />
    <glyph glyph-name="three" unicode="3" horiz-adv-x="600" 
d="M38 224q44 -12 85 -20.5t76 -8.5t48 9t13 26t-13 26t-47 9h-73v174h73q34 0 47 9t13 26t-13 26t-48 9q-33 0 -70.5 -7.5t-70.5 -16.5v206q21 11 47 19t54.5 13.5t58.5 8.5t57 3q62 0 115.5 -14.5t92.5 -41t61.5 -64t22.5 -84.5q0 -61 -36 -99t-94 -49v-2
q61 -16 99.5 -56.5t38.5 -110.5q0 -55 -25 -97t-69 -70.5t-103.5 -43t-128.5 -14.5q-52 0 -109 8.5t-102 25.5v201z" />
    <glyph glyph-name="four" unicode="4" horiz-adv-x="711" 
d="M19 224l315 500h262v-413h85v-194h-85v-117h-298v117h-279v107zM310 311v108l-2 1l-68 -109h70z" />
    <glyph glyph-name="five" unicode="5" horiz-adv-x="606" 
d="M43 247q42 -12 85.5 -21t82.5 -9q41 0 58.5 11t17.5 32t-19.5 30.5t-72.5 9.5q-13 0 -31 -0.5t-38 -1t-40.5 -1t-37.5 -1.5l38 428h474l-22 -242h-201l-3 -39q46 -2 91.5 -14t81 -37t57.5 -63.5t22 -93.5q0 -61 -27.5 -107t-74 -77t-108 -46.5t-129.5 -15.5
q-33 0 -65.5 3.5t-61.5 8.5t-53.5 12t-42.5 13z" />
    <glyph glyph-name="six" unicode="6" horiz-adv-x="674" 
d="M15 276q0 74 27.5 136t68.5 116l148 196h312l-193 -233q8 1 16 1.5t16 0.5q52 0 97 -17t78.5 -48t52.5 -74.5t19 -95.5q0 -59 -24.5 -108.5t-67 -85t-101 -55.5t-126.5 -20q-65 0 -124 19t-103 55.5t-70 90t-26 122.5zM285 265q0 -22 14.5 -36.5t35.5 -14.5
q22 0 36.5 14.5t14.5 36.5q0 21 -14.5 35.5t-36.5 14.5q-21 0 -35.5 -14.5t-14.5 -35.5z" />
    <glyph glyph-name="seven" unicode="7" horiz-adv-x="638" 
d="M243 482h-213v242h604l1 -2l-270 -722h-314z" />
    <glyph glyph-name="eight" unicode="8" horiz-adv-x="722" 
d="M25 214q0 64 37 110.5t102 66.5v2q-49 17 -79.5 52.5t-30.5 88.5q0 44 23 81t64.5 63.5t97.5 41.5t122 15t122 -15t97.5 -41.5t64.5 -63.5t23 -81q0 -53 -30.5 -88.5t-79.5 -52.5v-2q65 -20 102 -66.5t37 -110.5q0 -53 -26 -95t-71 -71t-106.5 -44t-132.5 -15t-132.5 15
t-106.5 44t-71 71t-26 95zM361 427q20 0 34 13.5t14 33.5t-14 34t-34 14t-34 -14t-14 -34t14 -33.5t34 -13.5zM311 238q0 -20 14.5 -34.5t35.5 -14.5t35.5 14.5t14.5 34.5q0 21 -14.5 35.5t-35.5 14.5t-35.5 -14.5t-14.5 -35.5z" />
    <glyph glyph-name="nine" unicode="9" horiz-adv-x="686" 
d="M304 232q-8 -1 -15.5 -1h-15.5q-52 0 -97 17t-78.5 48t-52.5 74.5t-19 95.5q0 59 24.5 108.5t67 85t101 55.5t126.5 20q65 0 123.5 -19t103 -55.5t70.5 -90t26 -122.5q0 -74 -27.5 -136t-68.5 -116l-148 -196h-312zM348 409q20 0 34.5 14.5t14.5 34.5q0 21 -14.5 35.5
t-34.5 14.5q-21 0 -35.5 -14.5t-14.5 -35.5q0 -20 14.5 -34.5t35.5 -14.5z" />
    <glyph glyph-name="colon" unicode=":" horiz-adv-x="387" 
d="M194 327q-31 0 -57 10.5t-45.5 29t-30.5 43.5t-11 54t11 54t30.5 43.5t45.5 29t57 10.5t57 -10.5t45.5 -29t30.5 -43.5t11 -54t-11 -54t-30.5 -43.5t-45.5 -29t-57 -10.5zM50 126q0 29 11 54t30.5 43.5t45.5 29t57 10.5t57 -10.5t45.5 -29t30.5 -43.5t11 -54t-11 -54
t-30.5 -43.5t-45.5 -29t-57 -10.5t-57 10.5t-45.5 29t-30.5 43.5t-11 54z" />
    <glyph glyph-name="semicolon" unicode=";" horiz-adv-x="397" 
d="M200 327q-31 0 -57 10.5t-45.5 29t-30.5 43.5t-11 54t11 54t30.5 43.5t45.5 29t57 10.5t57 -10.5t45.5 -29t30.5 -43.5t11 -54t-11 -54t-30.5 -43.5t-45.5 -29t-57 -10.5zM87 185h252l-110 -332h-204z" />
    <glyph glyph-name="less" unicode="&#x3c;" horiz-adv-x="604" 
d="M40 429l524 203v-190l-226 -79v-2l226 -79v-190l-524 203v134z" />
    <glyph glyph-name="equal" unicode="=" horiz-adv-x="604" 
d="M40 576h524v-183h-524v183zM40 331h524v-183h-524v183z" />
    <glyph glyph-name="greater" unicode="&#x3e;" horiz-adv-x="604" 
d="M40 282l226 79v2l-226 79v190l524 -203v-134l-524 -203v190z" />
    <glyph glyph-name="question" unicode="?" horiz-adv-x="536" 
d="M79 440q9 -2 22 -2.5t25 -0.5q46 0 71 12t25 38q0 20 -15 32.5t-45 12.5q-26 0 -51.5 -8t-43.5 -18l-33 189q43 22 91.5 31.5t96.5 9.5q72 0 126 -19.5t89.5 -51.5t53 -73t17.5 -84q0 -40 -14 -72.5t-37 -58t-51.5 -43.5t-58.5 -30l-8 -50q-29 5 -57.5 8t-57.5 3
q-55 0 -113 -11zM84 115q0 26 11 48.5t30 39.5t44.5 27t54.5 10t54.5 -10t44.5 -27t30 -39.5t11 -48.5t-11 -49.5t-30 -40.5t-44.5 -27t-54.5 -10t-54.5 10t-44.5 27t-30 40.5t-11 49.5z" />
    <glyph glyph-name="at" unicode="@" horiz-adv-x="843" 
d="M28 361q0 81 30.5 150t83.5 118.5t126 77.5t158 28q87 0 158.5 -28.5t123 -77.5t79.5 -114t28 -138q0 -60 -18 -99.5t-46 -63.5t-63 -34t-68 -10q-37 0 -75.5 12t-65.5 42q-20 -23 -52 -39t-71 -16q-32 0 -59.5 11.5t-48 33.5t-32.5 54t-12 72q0 41 13 79.5t38 68.5
t62 48.5t84 18.5q28 0 48 -6t35 -15l130 15l-14 -167q-1 -8 -1.5 -18t-0.5 -17q0 -31 14.5 -47.5t37.5 -16.5q11 0 22 4.5t20 16t14.5 30t5.5 45.5q0 44 -16 91t-50.5 86t-89.5 64.5t-132 25.5q-76 0 -131 -24.5t-91 -65t-53.5 -91.5t-17.5 -103q0 -53 17.5 -104t53 -91
t89.5 -64.5t127 -24.5q65 0 118.5 17.5t89.5 38.5l43 -81q-43 -26 -105 -45t-137 -19q-86 0 -159 27.5t-126 77t-83.5 118t-30.5 149.5zM398 297q22 0 43 18q-1 8 -1.5 19.5t1.5 27.5l5 57q-4 3 -13.5 5.5t-17.5 2.5q-26 0 -39.5 -22.5t-13.5 -54.5q0 -23 8 -38t28 -15z" />
    <glyph glyph-name="A" unicode="A" horiz-adv-x="849" 
d="M282 724h285l276 -724h-322l-25 95h-166l-28 -95h-296zM448 277l-32 147h-2l-32 -147h66z" />
    <glyph glyph-name="B" unicode="B" horiz-adv-x="713" 
d="M44 724h290q27 0 63 -1.5t73.5 -7.5t74 -18t65 -32.5t46 -51t17.5 -73.5q0 -46 -24.5 -85t-84.5 -60v-2q39 -15 64.5 -34.5t39.5 -42t19.5 -47t5.5 -48.5q0 -72 -34 -115.5t-85.5 -67t-112 -31t-113.5 -7.5h-304v724zM353 430q29 0 42.5 13t13.5 32q0 20 -14 32.5
t-42 12.5h-11v-90h11zM355 194q35 0 52 16.5t17 39.5t-17 39.5t-52 16.5h-13v-112h13z" />
    <glyph glyph-name="C" unicode="C" horiz-adv-x="705" 
d="M28 362q0 80 31.5 148.5t87.5 118.5t133.5 78t169.5 28q62 0 120 -12t93 -30v-267q-38 19 -83.5 32.5t-96.5 13.5q-77 0 -117 -32.5t-40 -83.5t40 -83t117 -32q51 0 98.5 13.5t85.5 34.5v-255q-18 -9 -42.5 -17.5t-53 -14.5t-60.5 -9.5t-64 -3.5q-91 0 -167.5 28
t-132.5 78t-87.5 118t-31.5 149z" />
    <glyph glyph-name="D" unicode="D" horiz-adv-x="801" 
d="M44 0v724h303q106 0 186 -30t135 -83q48 -46 76.5 -108t28.5 -141q0 -75 -27 -138t-76 -110q-57 -54 -137.5 -84t-183.5 -30h-305zM342 236h7q38 0 66 11t46 30q15 16 24 37.5t9 47.5q0 27 -9 49t-24 38q-16 17 -42 28t-68 11h-9v-252z" />
    <glyph glyph-name="E" unicode="E" horiz-adv-x="609" 
d="M44 724h521v-242h-223v-39h180v-172h-180v-41h237v-230h-535v724z" />
    <glyph glyph-name="F" unicode="F" horiz-adv-x="614" 
d="M44 724h536v-242h-238v-41h190v-182h-190v-259h-298v724z" />
    <glyph glyph-name="G" unicode="G" horiz-adv-x="757" 
d="M451 -11q-98 0 -176.5 28t-134 77.5t-85 116.5t-29.5 145q0 82 32 151.5t89 120t136.5 79t174.5 28.5q72 0 135 -15t106 -37v-248q-22 9 -49 18t-55.5 16t-57 11t-53.5 4q-40 0 -70 -10.5t-50.5 -29t-30.5 -44t-10 -54.5q0 -32 11.5 -57t31 -42.5t45 -27t52.5 -9.5
q11 0 18 1t12 3v37h-72v162h296v-358q-40 -25 -108 -45.5t-158 -20.5z" />
    <glyph glyph-name="H" unicode="H" horiz-adv-x="834" 
d="M44 724h298v-224h150v224h298v-724h-298v264h-150v-264h-298v724z" />
    <glyph glyph-name="I" unicode="I" horiz-adv-x="386" 
d="M44 724h298v-724h-298v724z" />
    <glyph glyph-name="J" unicode="J" horiz-adv-x="557" 
d="M30 258q28 -12 57.5 -19t53.5 -7q22 0 36.5 6t23 16.5t12 23t3.5 26.5v420h298v-430q0 -77 -21 -135.5t-61 -95.5q-44 -41 -103.5 -57.5t-128.5 -16.5q-54 0 -99 10t-71 24v235z" />
    <glyph glyph-name="K" unicode="K" horiz-adv-x="817" 
d="M44 724h298v-302l2 -1l123 303h326l-171 -336l185 -388h-335l-128 341l-2 -1v-340h-298v724z" />
    <glyph glyph-name="L" unicode="L" horiz-adv-x="600" 
d="M44 724h298v-467h224v-257h-522v724z" />
    <glyph glyph-name="M" unicode="M" horiz-adv-x="919" 
d="M44 724h278l144 -182l139 182h270v-724h-298v353h-2l-129 -170l-132 170h-2v-353h-268v724z" />
    <glyph glyph-name="N" unicode="N" horiz-adv-x="842" 
d="M44 724h271l213 -309l2 1v308h268v-724h-271l-213 309l-2 -1v-308h-268v724z" />
    <glyph glyph-name="O" unicode="O" 
d="M28 362q0 79 31 147t85.5 118t128.5 79t159 29t159 -29t128.5 -79t85.5 -118t31 -147t-31 -147t-85.5 -118.5t-128.5 -79t-159 -28.5t-159 28.5t-128.5 79t-85.5 118.5t-31 147zM320 357q0 -23 9 -43.5t24 -35.5t35.5 -24t43.5 -9t43.5 9t35.5 24t24 35.5t9 43.5t-9 43.5
t-24 35.5t-35.5 24t-43.5 9t-43.5 -9t-35.5 -24t-24 -35.5t-9 -43.5z" />
    <glyph glyph-name="P" unicode="P" horiz-adv-x="707" 
d="M44 724h274q65 0 131 -11t119 -40t86 -78.5t33 -127.5q0 -70 -27 -119.5t-73 -81t-107 -46t-128 -14.5h-10v-206h-298v724zM350 390q38 0 56.5 17.5t18.5 43.5t-18.5 43.5t-56.5 17.5h-8v-122h8z" />
    <glyph glyph-name="Q" unicode="Q" 
d="M28 362q0 79 31 147t85.5 118t128.5 79t159 29t159 -29t128.5 -79t85.5 -118t31 -147q0 -88 -37.5 -161t-102.5 -124q46 -27 96.5 -54t96.5 -47l-260 -144q-30 16 -58.5 36.5t-54 41.5t-47.5 41.5t-38 37.5q-85 0 -158.5 28.5t-128 79t-85.5 118.5t-31 147zM320 357
q0 -23 9 -43.5t24 -35.5t35.5 -24t43.5 -9t43.5 9t35.5 24t24 35.5t9 43.5t-9 43.5t-24 35.5t-35.5 24t-43.5 9t-43.5 -9t-35.5 -24t-24 -35.5t-9 -43.5z" />
    <glyph glyph-name="R" unicode="R" horiz-adv-x="754" 
d="M44 724h297q56 0 118 -9t114 -34t86 -70t34 -117q0 -59 -25 -101t-66 -71l165 -322h-313l-108 238h-4v-238h-298v724zM364 404q35 0 51.5 16.5t16.5 39.5t-16.5 39t-51.5 16h-22v-111h22z" />
    <glyph glyph-name="S" unicode="S" horiz-adv-x="638" 
d="M46 294q36 -24 72 -40t67.5 -26.5t57 -15t41.5 -4.5q23 0 30 7.5t7 16.5q0 11 -6 16t-16 7q-13 3 -37 7.5t-53.5 13.5t-60.5 24.5t-59 39.5q-29 26 -46.5 62t-17.5 89q0 54 20.5 99t58.5 77.5t92.5 50t123.5 17.5q33 0 68 -4t69 -11.5t65 -18t56 -23.5v-237
q-35 18 -68.5 30t-62.5 19.5t-51.5 11t-36.5 3.5q-22 0 -29.5 -7t-7.5 -15q0 -11 7 -16.5t16 -8.5q11 -3 34 -8t51 -13t58.5 -21.5t57.5 -34.5q73 -60 73 -156q0 -52 -20.5 -95.5t-59.5 -74.5t-95 -48.5t-127 -17.5q-69 0 -143 15.5t-128 43.5v246z" />
    <glyph glyph-name="T" unicode="T" horiz-adv-x="770" 
d="M236 478h-202v246h702v-246h-202v-478h-298v478z" />
    <glyph glyph-name="U" unicode="U" horiz-adv-x="832" 
d="M111 104q-14 16 -26 36.5t-21.5 47.5t-15 62t-5.5 79v395h298v-375q0 -51 19.5 -83.5t71.5 -32.5q50 0 69.5 30t19.5 85v376h268v-391q0 -84 -18.5 -138t-47.5 -89q-25 -30 -59 -52t-74 -36.5t-85 -21.5t-91 -7q-96 0 -175.5 29t-127.5 86z" />
    <glyph glyph-name="V" unicode="V" horiz-adv-x="848" 
d="M6 724h322l107 -384h2l114 384h291l-277 -724h-282z" />
    <glyph glyph-name="W" unicode="W" horiz-adv-x="1097" 
d="M10 724h318l72 -336h2l61 336h201l60 -336h2l73 336h288l-213 -724h-263l-62 282h-2l-61 -282h-264z" />
    <glyph glyph-name="X" unicode="X" horiz-adv-x="829" 
d="M235 385l-201 339h327l68 -147h2l67 147h296l-204 -345l233 -379h-334l-90 173h-2l-89 -173h-302z" />
    <glyph glyph-name="Y" unicode="Y" horiz-adv-x="818" 
d="M261 306l-266 418h336l82 -165h2l83 165h325l-264 -409v-315h-298v306z" />
    <glyph glyph-name="Z" unicode="Z" horiz-adv-x="723" 
d="M264 480l-1 2h-219v242h663l1 -2l-261 -490l1 -2h242v-230h-680l-1 2z" />
    <glyph glyph-name="bracketleft" unicode="[" horiz-adv-x="404" 
d="M44 840h330v-183h-73v-590h73v-183h-330v956z" />
    <glyph glyph-name="backslash" unicode="\" horiz-adv-x="497" 
d="M-8 762h208l305 -800h-208z" />
    <glyph glyph-name="bracketright" unicode="]" horiz-adv-x="404" 
d="M103 67v590h-73v183h330v-956h-330v183h73z" />
    <glyph glyph-name="asciicircum" unicode="^" horiz-adv-x="568" 
d="M194 735h180l168 -373h-216l-41 111h-2l-42 -111h-215z" />
    <glyph glyph-name="underscore" unicode="_" horiz-adv-x="599" 
d="M589 -34v-146h-579v146h579z" />
    <glyph glyph-name="grave" unicode="`" horiz-adv-x="646" 
d="M89 939h276l96 -164h-215z" />
    <glyph glyph-name="a" unicode="a" horiz-adv-x="849" 
d="M282 724h285l276 -724h-322l-25 95h-166l-28 -95h-296zM448 277l-32 147h-2l-32 -147h66z" />
    <glyph glyph-name="b" unicode="b" horiz-adv-x="713" 
d="M44 724h290q27 0 63 -1.5t73.5 -7.5t74 -18t65 -32.5t46 -51t17.5 -73.5q0 -46 -24.5 -85t-84.5 -60v-2q39 -15 64.5 -34.5t39.5 -42t19.5 -47t5.5 -48.5q0 -72 -34 -115.5t-85.5 -67t-112 -31t-113.5 -7.5h-304v724zM353 430q29 0 42.5 13t13.5 32q0 20 -14 32.5
t-42 12.5h-11v-90h11zM355 194q35 0 52 16.5t17 39.5t-17 39.5t-52 16.5h-13v-112h13z" />
    <glyph glyph-name="c" unicode="c" horiz-adv-x="705" 
d="M28 362q0 80 31.5 148.5t87.5 118.5t133.5 78t169.5 28q62 0 120 -12t93 -30v-267q-38 19 -83.5 32.5t-96.5 13.5q-77 0 -117 -32.5t-40 -83.5t40 -83t117 -32q51 0 98.5 13.5t85.5 34.5v-255q-18 -9 -42.5 -17.5t-53 -14.5t-60.5 -9.5t-64 -3.5q-91 0 -167.5 28
t-132.5 78t-87.5 118t-31.5 149z" />
    <glyph glyph-name="d" unicode="d" horiz-adv-x="801" 
d="M44 0v724h303q106 0 186 -30t135 -83q48 -46 76.5 -108t28.5 -141q0 -75 -27 -138t-76 -110q-57 -54 -137.5 -84t-183.5 -30h-305zM342 236h7q38 0 66 11t46 30q15 16 24 37.5t9 47.5q0 27 -9 49t-24 38q-16 17 -42 28t-68 11h-9v-252z" />
    <glyph glyph-name="e" unicode="e" horiz-adv-x="609" 
d="M44 724h521v-242h-223v-39h180v-172h-180v-41h237v-230h-535v724z" />
    <glyph glyph-name="f" unicode="f" horiz-adv-x="614" 
d="M44 724h536v-242h-238v-41h190v-182h-190v-259h-298v724z" />
    <glyph glyph-name="g" unicode="g" horiz-adv-x="757" 
d="M451 -11q-98 0 -176.5 28t-134 77.5t-85 116.5t-29.5 145q0 82 32 151.5t89 120t136.5 79t174.5 28.5q72 0 135 -15t106 -37v-248q-22 9 -49 18t-55.5 16t-57 11t-53.5 4q-40 0 -70 -10.5t-50.5 -29t-30.5 -44t-10 -54.5q0 -32 11.5 -57t31 -42.5t45 -27t52.5 -9.5
q11 0 18 1t12 3v37h-72v162h296v-358q-40 -25 -108 -45.5t-158 -20.5z" />
    <glyph glyph-name="h" unicode="h" horiz-adv-x="834" 
d="M44 724h298v-224h150v224h298v-724h-298v264h-150v-264h-298v724z" />
    <glyph glyph-name="i" unicode="i" horiz-adv-x="386" 
d="M44 724h298v-724h-298v724z" />
    <glyph glyph-name="j" unicode="j" horiz-adv-x="557" 
d="M30 258q28 -12 57.5 -19t53.5 -7q22 0 36.5 6t23 16.5t12 23t3.5 26.5v420h298v-430q0 -77 -21 -135.5t-61 -95.5q-44 -41 -103.5 -57.5t-128.5 -16.5q-54 0 -99 10t-71 24v235z" />
    <glyph glyph-name="k" unicode="k" horiz-adv-x="817" 
d="M44 724h298v-302l2 -1l123 303h326l-171 -336l185 -388h-335l-128 341l-2 -1v-340h-298v724z" />
    <glyph glyph-name="l" unicode="l" horiz-adv-x="600" 
d="M44 724h298v-467h224v-257h-522v724z" />
    <glyph glyph-name="m" unicode="m" horiz-adv-x="919" 
d="M44 724h278l144 -182l139 182h270v-724h-298v353h-2l-129 -170l-132 170h-2v-353h-268v724z" />
    <glyph glyph-name="n" unicode="n" horiz-adv-x="842" 
d="M44 724h271l213 -309l2 1v308h268v-724h-271l-213 309l-2 -1v-308h-268v724z" />
    <glyph glyph-name="o" unicode="o" 
d="M28 362q0 79 31 147t85.5 118t128.5 79t159 29t159 -29t128.5 -79t85.5 -118t31 -147t-31 -147t-85.5 -118.5t-128.5 -79t-159 -28.5t-159 28.5t-128.5 79t-85.5 118.5t-31 147zM320 357q0 -23 9 -43.5t24 -35.5t35.5 -24t43.5 -9t43.5 9t35.5 24t24 35.5t9 43.5t-9 43.5
t-24 35.5t-35.5 24t-43.5 9t-43.5 -9t-35.5 -24t-24 -35.5t-9 -43.5z" />
    <glyph glyph-name="p" unicode="p" horiz-adv-x="707" 
d="M44 724h274q65 0 131 -11t119 -40t86 -78.5t33 -127.5q0 -70 -27 -119.5t-73 -81t-107 -46t-128 -14.5h-10v-206h-298v724zM350 390q38 0 56.5 17.5t18.5 43.5t-18.5 43.5t-56.5 17.5h-8v-122h8z" />
    <glyph glyph-name="q" unicode="q" 
d="M28 362q0 79 31 147t85.5 118t128.5 79t159 29t159 -29t128.5 -79t85.5 -118t31 -147q0 -88 -37.5 -161t-102.5 -124q46 -27 96.5 -54t96.5 -47l-260 -144q-30 16 -58.5 36.5t-54 41.5t-47.5 41.5t-38 37.5q-85 0 -158.5 28.5t-128 79t-85.5 118.5t-31 147zM320 357
q0 -23 9 -43.5t24 -35.5t35.5 -24t43.5 -9t43.5 9t35.5 24t24 35.5t9 43.5t-9 43.5t-24 35.5t-35.5 24t-43.5 9t-43.5 -9t-35.5 -24t-24 -35.5t-9 -43.5z" />
    <glyph glyph-name="r" unicode="r" horiz-adv-x="754" 
d="M44 724h297q56 0 118 -9t114 -34t86 -70t34 -117q0 -59 -25 -101t-66 -71l165 -322h-313l-108 238h-4v-238h-298v724zM364 404q35 0 51.5 16.5t16.5 39.5t-16.5 39t-51.5 16h-22v-111h22z" />
    <glyph glyph-name="s" unicode="s" horiz-adv-x="638" 
d="M46 294q36 -24 72 -40t67.5 -26.5t57 -15t41.5 -4.5q23 0 30 7.5t7 16.5q0 11 -6 16t-16 7q-13 3 -37 7.5t-53.5 13.5t-60.5 24.5t-59 39.5q-29 26 -46.5 62t-17.5 89q0 54 20.5 99t58.5 77.5t92.5 50t123.5 17.5q33 0 68 -4t69 -11.5t65 -18t56 -23.5v-237
q-35 18 -68.5 30t-62.5 19.5t-51.5 11t-36.5 3.5q-22 0 -29.5 -7t-7.5 -15q0 -11 7 -16.5t16 -8.5q11 -3 34 -8t51 -13t58.5 -21.5t57.5 -34.5q73 -60 73 -156q0 -52 -20.5 -95.5t-59.5 -74.5t-95 -48.5t-127 -17.5q-69 0 -143 15.5t-128 43.5v246z" />
    <glyph glyph-name="t" unicode="t" horiz-adv-x="770" 
d="M236 478h-202v246h702v-246h-202v-478h-298v478z" />
    <glyph glyph-name="u" unicode="u" horiz-adv-x="832" 
d="M111 104q-14 16 -26 36.5t-21.5 47.5t-15 62t-5.5 79v395h298v-375q0 -51 19.5 -83.5t71.5 -32.5q50 0 69.5 30t19.5 85v376h268v-391q0 -84 -18.5 -138t-47.5 -89q-25 -30 -59 -52t-74 -36.5t-85 -21.5t-91 -7q-96 0 -175.5 29t-127.5 86z" />
    <glyph glyph-name="v" unicode="v" horiz-adv-x="848" 
d="M6 724h322l107 -384h2l114 384h291l-277 -724h-282z" />
    <glyph glyph-name="w" unicode="w" horiz-adv-x="1097" 
d="M10 724h318l72 -336h2l61 336h201l60 -336h2l73 336h288l-213 -724h-263l-62 282h-2l-61 -282h-264z" />
    <glyph glyph-name="x" unicode="x" horiz-adv-x="829" 
d="M235 385l-201 339h327l68 -147h2l67 147h296l-204 -345l233 -379h-334l-90 173h-2l-89 -173h-302z" />
    <glyph glyph-name="y" unicode="y" horiz-adv-x="818" 
d="M261 306l-266 418h336l82 -165h2l83 165h325l-264 -409v-315h-298v306z" />
    <glyph glyph-name="z" unicode="z" horiz-adv-x="723" 
d="M264 480l-1 2h-219v242h663l1 -2l-261 -490l1 -2h242v-230h-680l-1 2z" />
    <glyph glyph-name="braceleft" unicode="{" horiz-adv-x="458" 
d="M115 218q0 24 -11 34t-34 10h-40v199h40q23 0 34 10t11 34v135q0 108 55 159.5t173 51.5q21 0 45 -2t40 -4v-180q-12 3 -23 3q-20 0 -26.5 -10.5t-6.5 -27.5v-121q0 -69 -31 -102t-98 -44v-2q67 -11 98 -44t31 -102v-121q0 -17 6.5 -27.5t26.5 -10.5q11 0 23 3v-180
q-16 -2 -40 -4t-45 -2q-118 0 -173 51.5t-55 159.5v134z" />
    <glyph glyph-name="bar" unicode="|" horiz-adv-x="348" 
d="M68 800h212v-1020h-212v1020z" />
    <glyph glyph-name="braceright" unicode="}" horiz-adv-x="458" 
d="M30 59q12 -3 23 -3q20 0 26.5 10.5t6.5 27.5v121q0 69 31 102t98 44v2q-67 11 -98 44t-31 102v121q0 17 -6.5 27.5t-26.5 10.5q-11 0 -23 -3v180q16 2 40 4t45 2q118 0 173 -51.5t55 -159.5v-134q0 -24 11 -34t34 -10h40v-199h-40q-23 0 -34 -10t-11 -34v-135
q0 -108 -55 -159.5t-173 -51.5q-21 0 -45 2t-40 4v180v0z" />
    <glyph glyph-name="asciitilde" unicode="~" horiz-adv-x="581" 
d="M44 214v242q20 20 54.5 34.5t77.5 14.5q32 0 59.5 -9t62.5 -23q41 -17 63.5 -24t45.5 -7q42 0 73.5 20t54.5 47l2 -1v-242q-20 -20 -54.5 -34.5t-77.5 -14.5q-32 0 -59.5 9t-62.5 23q-41 17 -63.5 24t-45.5 7q-42 0 -73.5 -20t-54.5 -47z" />
    <glyph glyph-name="exclamdown" unicode="&#xa1;" horiz-adv-x="362" 
d="M181 484q-29 0 -54.5 10t-44.5 27t-30 39.5t-11 48.5t11 49t30 40.5t44.5 27.5t54.5 10t54.5 -10t44.5 -27.5t30 -40.5t11 -49t-11 -48.5t-30 -39.5t-44.5 -27t-54.5 -10zM85 467q24 -4 48 -6t48 -2t48 2t48 6l65 -467h-322z" />
    <glyph glyph-name="cent" unicode="&#xa2;" horiz-adv-x="513" 
d="M176 133q-34 16 -63 38.5t-50 51.5t-32.5 64.5t-11.5 76.5q0 39 11.5 74t32.5 64t50 52t63 39v149h212v-120q26 -4 48.5 -9.5t34.5 -11.5v-213q-21 10 -45.5 15.5t-53.5 5.5q-40 0 -60 -13.5t-20 -33.5q0 -23 21 -35t59 -12q25 0 52 5.5t48 15.5v-211q-14 -7 -36 -13
t-48 -9v-121h-212v151z" />
    <glyph glyph-name="sterling" unicode="&#xa3;" horiz-adv-x="690" 
d="M38 187q50 9 76.5 30.5t26.5 59.5q0 12 -3 26h-100v130h55q-2 12 -3.5 24t-1.5 26q0 51 21 96.5t62.5 80t102 55t139.5 20.5q59 0 117.5 -11t102.5 -28v-220q-48 21 -94 30.5t-75 9.5q-43 0 -59.5 -20.5t-16.5 -62.5h118v-130h-100q-3 -24 -12.5 -39.5t-20.5 -20.5v-2
q21 -7 44 -9.5t46 -2.5q53 0 102.5 11.5t86.5 29.5v-233q-12 -12 -30 -21t-39 -15t-43 -9t-43 -3q-36 0 -72 7.5t-72 16t-72.5 16t-73.5 7.5q-48 0 -91 -12t-78 -27v190z" />
    <glyph glyph-name="currency" unicode="&#xa4;" horiz-adv-x="610" 
d="M8 205l87 86q-7 25 -7 59q0 32 7 59l-87 86l153 153l92 -91q25 6 53 6q27 0 53 -6l92 91l153 -153l-88 -86q8 -30 8 -59q0 -30 -8 -59l88 -86l-153 -153l-92 90q-28 -5 -53 -5q-14 0 -27 1.5t-26 3.5l-92 -90zM306 307q18 0 31 12.5t13 30.5t-13 30.5t-31 12.5t-31 -12.5
t-13 -30.5t13 -30.5t31 -12.5z" />
    <glyph glyph-name="yen" unicode="&#xa5;" horiz-adv-x="840" 
d="M107 293h166v39h-166v112h89l-190 280h336l82 -138h2l83 138h325l-194 -280h94v-112h-166v-39h166v-112h-166v-181h-295v181h-166v112z" />
    <glyph glyph-name="brokenbar" unicode="&#xa6;" horiz-adv-x="368" 
d="M78 800h212v-392h-212v392zM290 172v-392h-212v392h212z" />
    <glyph glyph-name="section" unicode="&#xa7;" horiz-adv-x="587" 
d="M87 88q40 -26 76 -37.5t55 -11.5q14 0 23 6t9 17q0 12 -11 20.5t-29 16.5t-40.5 17t-45.5 24q-39 25 -63.5 62t-24.5 88q0 43 17.5 76.5t46.5 55.5q-17 26 -25 53t-8 56q0 49 21 87.5t56.5 65.5t83.5 41t102 14q39 0 80 -7.5t75 -21.5v-202q-35 20 -65.5 28t-47.5 8
q-14 0 -22.5 -5t-8.5 -16q0 -12 11 -20.5t29 -17t40 -17.5t45 -23q40 -25 64.5 -62t24.5 -89q0 -43 -17.5 -77t-46.5 -57q18 -26 25.5 -52.5t7.5 -54.5q0 -50 -20.5 -88.5t-56.5 -65t-84 -40.5t-103 -14q-41 0 -89.5 9t-83.5 29v205zM256 307q0 -17 20 -31t45 -22q8 4 11 10
t3 11q0 17 -20 31t-45 22q-8 -4 -11 -10t-3 -11z" />
    <glyph glyph-name="dieresis" unicode="&#xa8;" horiz-adv-x="646" 
d="M453 765q-21 0 -40 8t-33.5 21.5t-22.5 32t-8 39.5t8 39.5t22.5 32t33.5 21.5t40 8t39.5 -8t32.5 -21.5t22 -32t8 -39.5t-8 -39.5t-22 -32t-32.5 -21.5t-39.5 -8zM192 765q-21 0 -39.5 8t-32.5 21.5t-22 32t-8 39.5t8 39.5t22 32t32.5 21.5t39.5 8t40 -8t33.5 -21.5
t22.5 -32t8 -39.5t-8 -39.5t-22.5 -32t-33.5 -21.5t-40 -8z" />
    <glyph glyph-name="copyright" unicode="&#xa9;" horiz-adv-x="848" 
d="M28 362q0 80 30 148.5t83 118.5t125.5 78t157.5 28t157.5 -28t125.5 -78t83 -118.5t30 -148.5t-30 -148.5t-83 -118.5t-125.5 -78t-157.5 -28t-157.5 28t-125.5 78t-83 118.5t-30 148.5zM131 362q0 -62 20.5 -114t59 -89.5t92.5 -59t121 -21.5t121 21.5t92.5 59t59 89.5
t20.5 114q0 61 -20.5 113.5t-59 90t-92.5 59t-121 21.5t-121 -21.5t-92.5 -59t-59 -90t-20.5 -113.5zM205 362q0 46 18 86t50.5 68.5t77.5 45t99 16.5q35 0 69 -7t54 -18v-154q-22 11 -48.5 18.5t-55.5 7.5q-45 0 -68 -19t-23 -48t23 -47.5t68 -18.5q29 0 56.5 7.5
t49.5 19.5v-147q-20 -11 -54.5 -18.5t-71.5 -7.5q-53 0 -97.5 16t-77 45t-51 68.5t-18.5 86.5z" />
    <glyph glyph-name="ordfeminine" unicode="&#xaa;" horiz-adv-x="555" 
d="M192 724h172l165 -434h-193l-15 57h-101l-16 -57h-178zM292 456l-19 88h-2l-19 -88h40z" />
    <glyph glyph-name="guillemotleft" unicode="&#xab;" horiz-adv-x="660" 
d="M20 362l150 219h199l-150 -219l150 -219h-199zM287 362l150 219h199l-150 -219l150 -219h-199z" />
    <glyph glyph-name="logicalnot" unicode="&#xac;" horiz-adv-x="604" 
d="M40 457h524v-346h-212v156h-312v190z" />
    <glyph glyph-name="uni00AD" unicode="&#xad;" horiz-adv-x="327" 
d="M30 474h267v-226h-267v226z" />
    <glyph glyph-name="registered" unicode="&#xae;" horiz-adv-x="444" 
d="M222 363q-42 0 -77.5 14t-61.5 39t-40.5 59t-14.5 74t14.5 74t40.5 59t61.5 39t77.5 14t77.5 -14t61.5 -39t40.5 -59t14.5 -74t-14.5 -74t-40.5 -59t-61.5 -39t-77.5 -14zM222 413q64 0 101 38.5t37 97.5q0 29 -10 54t-28 43t-43.5 28.5t-56.5 10.5q-64 0 -101 -38.5
t-37 -97.5q0 -29 9.5 -54t27.5 -43t43.5 -28.5t57.5 -10.5zM139 644h75q14 0 30 -2t29.5 -8.5t22 -18t8.5 -29.5q0 -15 -6.5 -26t-16.5 -18l42 -82h-80l-25 63h-4v-63h-75v184zM220 563q17 0 17 14t-17 14h-6v-28h6z" />
    <glyph glyph-name="macron" unicode="&#xaf;" horiz-adv-x="646" 
d="M139 939h368v-158h-368v158z" />
    <glyph glyph-name="degree" unicode="&#xb0;" horiz-adv-x="429" 
d="M215 387q-40 0 -74.5 13.5t-59.5 37t-39 55.5t-14 69q0 36 14 68t39 55.5t59.5 37t74.5 13.5t74 -13.5t59 -37t39 -55.5t14 -68q0 -37 -14 -69t-39 -55.5t-59 -37t-74 -13.5zM215 511q22 0 36.5 14.5t14.5 36.5q0 21 -14.5 35.5t-36.5 14.5q-21 0 -35.5 -14.5
t-14.5 -35.5q0 -22 14.5 -36.5t35.5 -14.5z" />
    <glyph glyph-name="plusminus" unicode="&#xb1;" horiz-adv-x="548" 
d="M168 364h-128v180h128v126h212v-126h128v-180h-128v-126h-212v126zM40 180h468v-180h-468v180z" />
    <glyph glyph-name="uni00B2" unicode="&#xb2;" horiz-adv-x="399" 
d="M20 292l119 172q26 37 36.5 56t10.5 33q0 18 -13 26t-33 8q-23 0 -48.5 -8t-44.5 -16v134q29 14 66 24t82 10q47 0 80 -12t54 -31.5t30.5 -44t9.5 -49.5q0 -26 -9 -48.5t-23.5 -42.5t-33 -38t-37.5 -35v-2h97v-138h-342z" />
    <glyph glyph-name="uni00B3" unicode="&#xb3;" horiz-adv-x="393" 
d="M40 424q26 -7 51 -12t46 -5t29 5.5t8 15.5t-8 15.5t-28 5.5h-44v104h44q20 0 28 5t8 16q0 10 -8 15.5t-29 5.5q-20 0 -42.5 -4.5t-42.5 -9.5v123q25 14 61.5 20.5t69.5 6.5q37 0 69 -8.5t55.5 -24.5t37 -39t13.5 -51q0 -36 -21.5 -58.5t-56.5 -29.5v-2q36 -9 59.5 -33.5
t23.5 -66.5q0 -33 -15 -58t-41.5 -42.5t-62.5 -26t-77 -8.5q-31 0 -65.5 5t-61.5 16v120z" />
    <glyph glyph-name="acute" unicode="&#xb4;" horiz-adv-x="646" 
d="M281 939h276l-157 -164h-215z" />
    <glyph glyph-name="paragraph" unicode="&#xb6;" horiz-adv-x="740" 
d="M215 362q-39 0 -73 14t-59 39t-39.5 57.5t-14.5 70.5q0 37 14.5 70t39.5 58t59 39t73 14h460v-944h-196v778h-68v-778h-196v582z" />
    <glyph glyph-name="periodcentered" unicode="&#xb7;" horiz-adv-x="388" 
d="M40 362q0 32 11.5 60t32.5 49t49 33t61 12t61 -12t49 -33t32.5 -49t11.5 -60t-11.5 -60t-32.5 -49t-49 -33t-61 -12t-61 12t-49 33t-32.5 49t-11.5 60z" />
    <glyph glyph-name="cedilla" unicode="&#xb8;" horiz-adv-x="646" 
d="M307 59l97 -18l-27 -68q53 -5 76.5 -29.5t23.5 -57.5q0 -47 -42.5 -77t-114.5 -30q-32 0 -61 6t-52 16l35 90q18 -8 38.5 -13.5t37.5 -5.5q28 0 28 16q0 14 -21.5 19.5t-73.5 6.5z" />
    <glyph glyph-name="uni00B9" unicode="&#xb9;" horiz-adv-x="319" 
d="M96 544l-71 -15v152l250 53v-444h-179v254z" />
    <glyph glyph-name="ordmasculine" unicode="&#xba;" horiz-adv-x="537" 
d="M269 283q-51 0 -95.5 17.5t-77.5 47.5t-51.5 71t-18.5 88t18.5 88t51.5 71t77.5 47.5t95.5 17.5t95 -17.5t77 -47.5t51.5 -71t18.5 -88t-18.5 -88t-51.5 -71t-77 -47.5t-95 -17.5zM269 437q28 0 47.5 19.5t19.5 47.5t-19.5 47.5t-47.5 19.5q-29 0 -48.5 -19.5
t-19.5 -47.5t19.5 -47.5t48.5 -19.5z" />
    <glyph glyph-name="guillemotright" unicode="&#xbb;" horiz-adv-x="660" 
d="M174 362l-150 219h199l150 -219l-150 -219h-199zM441 362l-150 219h199l150 -219l-150 -219h-199z" />
    <glyph glyph-name="onequarter" unicode="&#xbc;" horiz-adv-x="648" 
d="M50 418h548v-112h-548v112zM267 -82h-167v64l189 300h158v-248h51v-116h-51v-70h-180v70zM274 34v61l-2 1l-39 -62h41zM248 696l-71 -15v152l250 53v-444h-179v254z" />
    <glyph glyph-name="onehalf" unicode="&#xbd;" horiz-adv-x="648" 
d="M50 418h548v-112h-548v112zM152 -150l119 172q26 37 36.5 56t10.5 33q0 18 -13 26t-33 8q-23 0 -48.5 -8t-44.5 -16v134q29 14 66 24t82 10q47 0 80 -12t54 -31.5t30.5 -44t9.5 -49.5q0 -26 -9 -48.5t-23.5 -42.5t-33 -38t-37.5 -35v-2h97v-138h-342zM248 696l-71 -15
v152l250 53v-444h-179v254z" />
    <glyph glyph-name="threequarters" unicode="&#xbe;" horiz-adv-x="648" 
d="M50 418h548v-112h-548v112zM172 576q26 -7 51 -12t46 -5t29 5.5t8 15.5t-8 15.5t-28 5.5h-44v104h44q20 0 28 5t8 16q0 10 -8 15.5t-29 5.5q-20 0 -42.5 -4.5t-42.5 -9.5v123q25 14 61.5 20.5t69.5 6.5q37 0 69 -8.5t55.5 -24.5t37 -39t13.5 -51q0 -36 -21.5 -58.5
t-56.5 -29.5v-2q36 -9 59.5 -33.5t23.5 -66.5q0 -33 -15 -58t-41.5 -42.5t-62.5 -26t-77 -8.5q-31 0 -65.5 5t-61.5 16v120zM272 -82h-167v64l189 300h158v-248h51v-116h-51v-70h-180v70zM279 34v61l-2 1l-39 -62h41z" />
    <glyph glyph-name="questiondown" unicode="&#xbf;" horiz-adv-x="536" 
d="M312 484q-29 0 -54.5 10t-44.5 27t-30 39.5t-11 48.5t11 49t30 40.5t44.5 27.5t54.5 10t54.5 -10t44.5 -27.5t30 -40.5t11 -49t-11 -48.5t-30 -39.5t-44.5 -27t-54.5 -10zM28 216q0 40 14 72.5t37 58t51.5 43.5t58.5 30l8 50q29 -5 57.5 -8t57.5 -3q55 0 113 11l32 -186
q-9 2 -22 2.5t-25 0.5q-46 0 -71 -12t-25 -38q0 -20 15 -32.5t45 -12.5q26 0 51.5 8t43.5 18l33 -189q-43 -22 -91.5 -31.5t-96.5 -9.5q-72 0 -126 19.5t-89.5 51.5t-53 73t-17.5 84z" />
    <glyph glyph-name="Agrave" unicode="&#xc0;" horiz-adv-x="849" 
d="M282 724h285l276 -724h-322l-25 95h-166l-28 -95h-296zM448 277l-32 147h-2l-32 -147h66zM190 939h276l96 -164h-215z" />
    <glyph glyph-name="Aacute" unicode="&#xc1;" horiz-adv-x="849" 
d="M282 724h285l276 -724h-322l-25 95h-166l-28 -95h-296zM448 277l-32 147h-2l-32 -147h66zM382 939h276l-157 -164h-215z" />
    <glyph glyph-name="Acircumflex" unicode="&#xc2;" horiz-adv-x="849" 
d="M282 724h285l276 -724h-322l-25 95h-166l-28 -95h-296zM448 277l-32 147h-2l-32 -147h66zM310 939h228l127 -164h-188l-53 56l-53 -56h-188z" />
    <glyph glyph-name="Atilde" unicode="&#xc3;" horiz-adv-x="849" 
d="M282 724h285l276 -724h-322l-25 95h-166l-28 -95h-296zM448 277l-32 147h-2l-32 -147h66zM232 759v144q18 26 43.5 43t67.5 17q25 0 46.5 -7.5t41.5 -17t40.5 -17t43.5 -7.5q32 0 57 16t42 39l2 -1v-144q-18 -26 -43.5 -43t-67.5 -17q-25 0 -46.5 7.5t-41.5 17t-40.5 17
t-43.5 7.5q-32 0 -57 -16t-42 -39z" />
    <glyph glyph-name="Adieresis" unicode="&#xc4;" horiz-adv-x="849" 
d="M282 724h285l276 -724h-322l-25 95h-166l-28 -95h-296zM448 277l-32 147h-2l-32 -147h66zM554 765q-21 0 -40 8t-33.5 21.5t-22.5 32t-8 39.5t8 39.5t22.5 32t33.5 21.5t40 8t39.5 -8t32.5 -21.5t22 -32t8 -39.5t-8 -39.5t-22 -32t-32.5 -21.5t-39.5 -8zM293 765
q-21 0 -39.5 8t-32.5 21.5t-22 32t-8 39.5t8 39.5t22 32t32.5 21.5t39.5 8t40 -8t33.5 -21.5t22.5 -32t8 -39.5t-8 -39.5t-22.5 -32t-33.5 -21.5t-40 -8z" />
    <glyph glyph-name="Aring" unicode="&#xc5;" horiz-adv-x="849" 
d="M282 724h285l276 -724h-322l-25 95h-166l-28 -95h-296zM448 277l-32 147h-2l-32 -147h66zM424 755q-31 0 -57.5 10.5t-46 29t-30.5 43.5t-11 54q0 28 11 53t30.5 44t46 29.5t57.5 10.5t57.5 -10.5t46 -29.5t30.5 -44t11 -53q0 -29 -11 -54t-30.5 -43.5t-46 -29
t-57.5 -10.5zM424 847q18 0 29.5 12t11.5 29t-11.5 29t-29.5 12t-29 -12t-11 -29t11 -29t29 -12z" />
    <glyph glyph-name="AE" unicode="&#xc6;" horiz-adv-x="1011" 
d="M359 724h608v-242h-203v-39h160v-172h-160v-41h217v-230h-515v95h-132l-41 -95h-287zM466 277v160h-4l-55 -160h59z" />
    <glyph glyph-name="Ccedilla" unicode="&#xc7;" horiz-adv-x="705" 
d="M324 -109q18 -8 38.5 -13.5t37.5 -5.5q28 0 28 16q0 14 -21.5 19.5t-73.5 6.5l31 82q-75 12 -136.5 43.5t-106 79.5t-69 110t-24.5 133q0 80 31.5 148.5t87.5 118.5t133.5 78t169.5 28q62 0 120 -12t93 -30v-267q-38 19 -83.5 32.5t-96.5 13.5q-77 0 -117 -32.5
t-40 -83.5t40 -83t117 -32q51 0 98.5 13.5t85.5 34.5v-255q-33 -18 -87.5 -30.5t-114.5 -14.5l-6 -16q53 -5 76.5 -29.5t23.5 -57.5q0 -47 -42.5 -77t-114.5 -30q-32 0 -61 6t-52 16l35 90v0z" />
    <glyph glyph-name="Egrave" unicode="&#xc8;" horiz-adv-x="609" 
d="M44 724h521v-242h-223v-39h180v-172h-180v-41h237v-230h-535v724zM84 939h276l96 -164h-215z" />
    <glyph glyph-name="Eacute" unicode="&#xc9;" horiz-adv-x="609" 
d="M44 724h521v-242h-223v-39h180v-172h-180v-41h237v-230h-535v724zM276 939h276l-157 -164h-215z" />
    <glyph glyph-name="Ecircumflex" unicode="&#xca;" horiz-adv-x="609" 
d="M44 724h521v-242h-223v-39h180v-172h-180v-41h237v-230h-535v724zM204 939h228l127 -164h-188l-53 56l-53 -56h-188z" />
    <glyph glyph-name="Edieresis" unicode="&#xcb;" horiz-adv-x="609" 
d="M44 724h521v-242h-223v-39h180v-172h-180v-41h237v-230h-535v724zM448 765q-21 0 -40 8t-33.5 21.5t-22.5 32t-8 39.5t8 39.5t22.5 32t33.5 21.5t40 8t39.5 -8t32.5 -21.5t22 -32t8 -39.5t-8 -39.5t-22 -32t-32.5 -21.5t-39.5 -8zM187 765q-21 0 -39.5 8t-32.5 21.5
t-22 32t-8 39.5t8 39.5t22 32t32.5 21.5t39.5 8t40 -8t33.5 -21.5t22.5 -32t8 -39.5t-8 -39.5t-22.5 -32t-33.5 -21.5t-40 -8z" />
    <glyph glyph-name="Igrave" unicode="&#xcc;" horiz-adv-x="386" 
d="M44 724h298v-724h-298v724zM-41 939h276l96 -164h-215z" />
    <glyph glyph-name="Iacute" unicode="&#xcd;" horiz-adv-x="386" 
d="M44 724h298v-724h-298v724zM151 939h276l-157 -164h-215z" />
    <glyph glyph-name="Icircumflex" unicode="&#xce;" horiz-adv-x="386" 
d="M44 724h298v-724h-298v724zM79 939h228l127 -164h-188l-53 56l-53 -56h-188z" />
    <glyph glyph-name="Idieresis" unicode="&#xcf;" horiz-adv-x="386" 
d="M44 724h298v-724h-298v724zM323 765q-21 0 -40 8t-33.5 21.5t-22.5 32t-8 39.5t8 39.5t22.5 32t33.5 21.5t40 8t39.5 -8t32.5 -21.5t22 -32t8 -39.5t-8 -39.5t-22 -32t-32.5 -21.5t-39.5 -8zM62 765q-21 0 -39.5 8t-32.5 21.5t-22 32t-8 39.5t8 39.5t22 32t32.5 21.5
t39.5 8t40 -8t33.5 -21.5t22.5 -32t8 -39.5t-8 -39.5t-22.5 -32t-33.5 -21.5t-40 -8z" />
    <glyph glyph-name="Eth" unicode="&#xd0;" horiz-adv-x="828" 
d="M71 290h-55v144h55v290h305q103 0 183.5 -30t137.5 -84q49 -47 76 -110t27 -138q0 -79 -28.5 -141t-76.5 -108q-55 -53 -135 -83t-186 -30h-303v290zM378 236q39 0 66.5 11t43.5 28q15 16 24 38t9 49q0 26 -9 47.5t-24 37.5q-18 18 -45 29.5t-67 11.5h-7v-54h55v-144h-55
v-54h9z" />
    <glyph glyph-name="Ntilde" unicode="&#xd1;" horiz-adv-x="842" 
d="M44 724h271l213 -309l2 1v308h268v-724h-271l-213 309l-2 -1v-308h-268v724zM229 759v144q18 26 43.5 43t67.5 17q25 0 46.5 -7.5t41.5 -17t40.5 -17t43.5 -7.5q32 0 57 16t42 39l2 -1v-144q-18 -26 -43.5 -43t-67.5 -17q-25 0 -46.5 7.5t-41.5 17t-40.5 17t-43.5 7.5
q-32 0 -57 -16t-42 -39z" />
    <glyph glyph-name="Ograve" unicode="&#xd2;" 
d="M28 362q0 79 31 147t85.5 118t128.5 79t159 29t159 -29t128.5 -79t85.5 -118t31 -147t-31 -147t-85.5 -118.5t-128.5 -79t-159 -28.5t-159 28.5t-128.5 79t-85.5 118.5t-31 147zM320 357q0 -23 9 -43.5t24 -35.5t35.5 -24t43.5 -9t43.5 9t35.5 24t24 35.5t9 43.5t-9 43.5
t-24 35.5t-35.5 24t-43.5 9t-43.5 -9t-35.5 -24t-24 -35.5t-9 -43.5zM198 939h276l96 -164h-215z" />
    <glyph glyph-name="Oacute" unicode="&#xd3;" 
d="M28 362q0 79 31 147t85.5 118t128.5 79t159 29t159 -29t128.5 -79t85.5 -118t31 -147t-31 -147t-85.5 -118.5t-128.5 -79t-159 -28.5t-159 28.5t-128.5 79t-85.5 118.5t-31 147zM320 357q0 -23 9 -43.5t24 -35.5t35.5 -24t43.5 -9t43.5 9t35.5 24t24 35.5t9 43.5t-9 43.5
t-24 35.5t-35.5 24t-43.5 9t-43.5 -9t-35.5 -24t-24 -35.5t-9 -43.5zM390 939h276l-157 -164h-215z" />
    <glyph glyph-name="Ocircumflex" unicode="&#xd4;" 
d="M28 362q0 79 31 147t85.5 118t128.5 79t159 29t159 -29t128.5 -79t85.5 -118t31 -147t-31 -147t-85.5 -118.5t-128.5 -79t-159 -28.5t-159 28.5t-128.5 79t-85.5 118.5t-31 147zM320 357q0 -23 9 -43.5t24 -35.5t35.5 -24t43.5 -9t43.5 9t35.5 24t24 35.5t9 43.5t-9 43.5
t-24 35.5t-35.5 24t-43.5 9t-43.5 -9t-35.5 -24t-24 -35.5t-9 -43.5zM318 939h228l127 -164h-188l-53 56l-53 -56h-188z" />
    <glyph glyph-name="Otilde" unicode="&#xd5;" 
d="M28 362q0 79 31 147t85.5 118t128.5 79t159 29t159 -29t128.5 -79t85.5 -118t31 -147t-31 -147t-85.5 -118.5t-128.5 -79t-159 -28.5t-159 28.5t-128.5 79t-85.5 118.5t-31 147zM320 357q0 -23 9 -43.5t24 -35.5t35.5 -24t43.5 -9t43.5 9t35.5 24t24 35.5t9 43.5t-9 43.5
t-24 35.5t-35.5 24t-43.5 9t-43.5 -9t-35.5 -24t-24 -35.5t-9 -43.5zM240 759v144q18 26 43.5 43t67.5 17q25 0 46.5 -7.5t41.5 -17t40.5 -17t43.5 -7.5q32 0 57 16t42 39l2 -1v-144q-18 -26 -43.5 -43t-67.5 -17q-25 0 -46.5 7.5t-41.5 17t-40.5 17t-43.5 7.5
q-32 0 -57 -16t-42 -39z" />
    <glyph glyph-name="Odieresis" unicode="&#xd6;" 
d="M28 362q0 79 31 147t85.5 118t128.5 79t159 29t159 -29t128.5 -79t85.5 -118t31 -147t-31 -147t-85.5 -118.5t-128.5 -79t-159 -28.5t-159 28.5t-128.5 79t-85.5 118.5t-31 147zM320 357q0 -23 9 -43.5t24 -35.5t35.5 -24t43.5 -9t43.5 9t35.5 24t24 35.5t9 43.5t-9 43.5
t-24 35.5t-35.5 24t-43.5 9t-43.5 -9t-35.5 -24t-24 -35.5t-9 -43.5zM562 765q-21 0 -40 8t-33.5 21.5t-22.5 32t-8 39.5t8 39.5t22.5 32t33.5 21.5t40 8t39.5 -8t32.5 -21.5t22 -32t8 -39.5t-8 -39.5t-22 -32t-32.5 -21.5t-39.5 -8zM301 765q-21 0 -39.5 8t-32.5 21.5
t-22 32t-8 39.5t8 39.5t22 32t32.5 21.5t39.5 8t40 -8t33.5 -21.5t22.5 -32t8 -39.5t-8 -39.5t-22.5 -32t-33.5 -21.5t-40 -8z" />
    <glyph glyph-name="multiply" unicode="&#xd7;" horiz-adv-x="564" 
d="M30 248l114 114l-114 114l138 138l114 -114l114 114l138 -138l-114 -114l114 -114l-138 -138l-114 114l-114 -114z" />
    <glyph glyph-name="Oslash" unicode="&#xd8;" 
d="M28 362q0 79 31 147t85.5 118t128.5 79t159 29q59 0 112.5 -14t99.5 -40l58 66l87 -75l-54 -61q48 -49 74.5 -112.5t26.5 -136.5q0 -79 -31 -147t-85.5 -118.5t-128.5 -79t-159 -28.5q-57 0 -108.5 13t-96.5 36l-63 -71l-87 75l57 64q-50 50 -78 115.5t-28 140.5z
M320 357q0 -17 5 -35l129 145q-5 1 -11 1.5t-11 0.5q-23 0 -43.5 -9t-35.5 -24t-24 -35.5t-9 -43.5zM544 357q0 16 -5 33l-127 -143q5 -1 10 -1.5t10 -0.5q23 0 43.5 9t35.5 24t24 35.5t9 43.5z" />
    <glyph glyph-name="Ugrave" unicode="&#xd9;" horiz-adv-x="832" 
d="M111 104q-14 16 -26 36.5t-21.5 47.5t-15 62t-5.5 79v395h298v-375q0 -51 19.5 -83.5t71.5 -32.5q50 0 69.5 30t19.5 85v376h268v-391q0 -84 -18.5 -138t-47.5 -89q-25 -30 -59 -52t-74 -36.5t-85 -21.5t-91 -7q-96 0 -175.5 29t-127.5 86zM196 939h276l96 -164h-215z
" />
    <glyph glyph-name="Uacute" unicode="&#xda;" horiz-adv-x="832" 
d="M111 104q-14 16 -26 36.5t-21.5 47.5t-15 62t-5.5 79v395h298v-375q0 -51 19.5 -83.5t71.5 -32.5q50 0 69.5 30t19.5 85v376h268v-391q0 -84 -18.5 -138t-47.5 -89q-25 -30 -59 -52t-74 -36.5t-85 -21.5t-91 -7q-96 0 -175.5 29t-127.5 86zM388 939h276l-157 -164h-215z
" />
    <glyph glyph-name="Ucircumflex" unicode="&#xdb;" horiz-adv-x="832" 
d="M111 104q-14 16 -26 36.5t-21.5 47.5t-15 62t-5.5 79v395h298v-375q0 -51 19.5 -83.5t71.5 -32.5q50 0 69.5 30t19.5 85v376h268v-391q0 -84 -18.5 -138t-47.5 -89q-25 -30 -59 -52t-74 -36.5t-85 -21.5t-91 -7q-96 0 -175.5 29t-127.5 86zM316 939h228l127 -164h-188
l-53 56l-53 -56h-188z" />
    <glyph glyph-name="Udieresis" unicode="&#xdc;" horiz-adv-x="832" 
d="M111 104q-14 16 -26 36.5t-21.5 47.5t-15 62t-5.5 79v395h298v-375q0 -51 19.5 -83.5t71.5 -32.5q50 0 69.5 30t19.5 85v376h268v-391q0 -84 -18.5 -138t-47.5 -89q-25 -30 -59 -52t-74 -36.5t-85 -21.5t-91 -7q-96 0 -175.5 29t-127.5 86zM560 765q-21 0 -40 8
t-33.5 21.5t-22.5 32t-8 39.5t8 39.5t22.5 32t33.5 21.5t40 8t39.5 -8t32.5 -21.5t22 -32t8 -39.5t-8 -39.5t-22 -32t-32.5 -21.5t-39.5 -8zM299 765q-21 0 -39.5 8t-32.5 21.5t-22 32t-8 39.5t8 39.5t22 32t32.5 21.5t39.5 8t40 -8t33.5 -21.5t22.5 -32t8 -39.5t-8 -39.5
t-22.5 -32t-33.5 -21.5t-40 -8z" />
    <glyph glyph-name="Yacute" unicode="&#xdd;" horiz-adv-x="818" 
d="M261 306l-266 418h336l82 -165h2l83 165h325l-264 -409v-315h-298v306zM373 939h276l-157 -164h-215z" />
    <glyph glyph-name="Thorn" unicode="&#xde;" horiz-adv-x="706" 
d="M44 724h298v-100q72 -2 119 -12.5t81 -24.5q75 -33 109.5 -90.5t34.5 -129.5q0 -22 -4 -49t-16 -55t-34 -54.5t-58 -48.5q-41 -25 -96 -38.5t-126 -13.5h-10v-108h-298v724zM350 291q38 0 56.5 17.5t18.5 43.5t-18.5 43.5t-56.5 17.5h-8v-122h8z" />
    <glyph glyph-name="germandbls" unicode="&#xdf;" horiz-adv-x="1276" 
d="M46 294q36 -24 72 -40t67.5 -26.5t57 -15t41.5 -4.5q23 0 30 7.5t7 16.5q0 11 -6 16t-16 7q-13 3 -37 7.5t-53.5 13.5t-60.5 24.5t-59 39.5q-29 26 -46.5 62t-17.5 89q0 54 20.5 99t58.5 77.5t92.5 50t123.5 17.5q33 0 68 -4t69 -11.5t65 -18t56 -23.5v-237
q-35 18 -68.5 30t-62.5 19.5t-51.5 11t-36.5 3.5q-22 0 -29.5 -7t-7.5 -15q0 -11 7 -16.5t16 -8.5q11 -3 34 -8t51 -13t58.5 -21.5t57.5 -34.5q73 -60 73 -156q0 -52 -20.5 -95.5t-59.5 -74.5t-95 -48.5t-127 -17.5q-69 0 -143 15.5t-128 43.5v246zM684 294q36 -24 72 -40
t67.5 -26.5t57 -15t41.5 -4.5q23 0 30 7.5t7 16.5q0 11 -6 16t-16 7q-13 3 -37 7.5t-53.5 13.5t-60.5 24.5t-59 39.5q-29 26 -46.5 62t-17.5 89q0 54 20.5 99t58.5 77.5t92.5 50t123.5 17.5q33 0 68 -4t69 -11.5t65 -18t56 -23.5v-237q-35 18 -68.5 30t-62.5 19.5t-51.5 11
t-36.5 3.5q-22 0 -29.5 -7t-7.5 -15q0 -11 7 -16.5t16 -8.5q11 -3 34 -8t51 -13t58.5 -21.5t57.5 -34.5q73 -60 73 -156q0 -52 -20.5 -95.5t-59.5 -74.5t-95 -48.5t-127 -17.5q-69 0 -143 15.5t-128 43.5v246z" />
    <glyph glyph-name="agrave" unicode="&#xe0;" horiz-adv-x="849" 
d="M282 724h285l276 -724h-322l-25 95h-166l-28 -95h-296zM448 277l-32 147h-2l-32 -147h66zM190 939h276l96 -164h-215z" />
    <glyph glyph-name="aacute" unicode="&#xe1;" horiz-adv-x="849" 
d="M282 724h285l276 -724h-322l-25 95h-166l-28 -95h-296zM448 277l-32 147h-2l-32 -147h66zM382 939h276l-157 -164h-215z" />
    <glyph glyph-name="acircumflex" unicode="&#xe2;" horiz-adv-x="849" 
d="M282 724h285l276 -724h-322l-25 95h-166l-28 -95h-296zM448 277l-32 147h-2l-32 -147h66zM310 939h228l127 -164h-188l-53 56l-53 -56h-188z" />
    <glyph glyph-name="atilde" unicode="&#xe3;" horiz-adv-x="849" 
d="M282 724h285l276 -724h-322l-25 95h-166l-28 -95h-296zM448 277l-32 147h-2l-32 -147h66zM232 759v144q18 26 43.5 43t67.5 17q25 0 46.5 -7.5t41.5 -17t40.5 -17t43.5 -7.5q32 0 57 16t42 39l2 -1v-144q-18 -26 -43.5 -43t-67.5 -17q-25 0 -46.5 7.5t-41.5 17t-40.5 17
t-43.5 7.5q-32 0 -57 -16t-42 -39z" />
    <glyph glyph-name="adieresis" unicode="&#xe4;" horiz-adv-x="849" 
d="M282 724h285l276 -724h-322l-25 95h-166l-28 -95h-296zM448 277l-32 147h-2l-32 -147h66zM554 765q-21 0 -40 8t-33.5 21.5t-22.5 32t-8 39.5t8 39.5t22.5 32t33.5 21.5t40 8t39.5 -8t32.5 -21.5t22 -32t8 -39.5t-8 -39.5t-22 -32t-32.5 -21.5t-39.5 -8zM293 765
q-21 0 -39.5 8t-32.5 21.5t-22 32t-8 39.5t8 39.5t22 32t32.5 21.5t39.5 8t40 -8t33.5 -21.5t22.5 -32t8 -39.5t-8 -39.5t-22.5 -32t-33.5 -21.5t-40 -8z" />
    <glyph glyph-name="aring" unicode="&#xe5;" horiz-adv-x="849" 
d="M282 724h285l276 -724h-322l-25 95h-166l-28 -95h-296zM448 277l-32 147h-2l-32 -147h66zM424 755q-31 0 -57.5 10.5t-46 29t-30.5 43.5t-11 54q0 28 11 53t30.5 44t46 29.5t57.5 10.5t57.5 -10.5t46 -29.5t30.5 -44t11 -53q0 -29 -11 -54t-30.5 -43.5t-46 -29
t-57.5 -10.5zM424 847q18 0 29.5 12t11.5 29t-11.5 29t-29.5 12t-29 -12t-11 -29t11 -29t29 -12z" />
    <glyph glyph-name="ae" unicode="&#xe6;" horiz-adv-x="1011" 
d="M359 724h608v-242h-203v-39h160v-172h-160v-41h217v-230h-515v95h-132l-41 -95h-287zM466 277v160h-4l-55 -160h59z" />
    <glyph glyph-name="ccedilla" unicode="&#xe7;" horiz-adv-x="705" 
d="M324 -109q18 -8 38.5 -13.5t37.5 -5.5q28 0 28 16q0 14 -21.5 19.5t-73.5 6.5l31 82q-75 12 -136.5 43.5t-106 79.5t-69 110t-24.5 133q0 80 31.5 148.5t87.5 118.5t133.5 78t169.5 28q62 0 120 -12t93 -30v-267q-38 19 -83.5 32.5t-96.5 13.5q-77 0 -117 -32.5
t-40 -83.5t40 -83t117 -32q51 0 98.5 13.5t85.5 34.5v-255q-33 -18 -87.5 -30.5t-114.5 -14.5l-6 -16q53 -5 76.5 -29.5t23.5 -57.5q0 -47 -42.5 -77t-114.5 -30q-32 0 -61 6t-52 16l35 90v0z" />
    <glyph glyph-name="egrave" unicode="&#xe8;" horiz-adv-x="609" 
d="M44 724h521v-242h-223v-39h180v-172h-180v-41h237v-230h-535v724zM84 939h276l96 -164h-215z" />
    <glyph glyph-name="eacute" unicode="&#xe9;" horiz-adv-x="609" 
d="M44 724h521v-242h-223v-39h180v-172h-180v-41h237v-230h-535v724zM276 939h276l-157 -164h-215z" />
    <glyph glyph-name="ecircumflex" unicode="&#xea;" horiz-adv-x="609" 
d="M44 724h521v-242h-223v-39h180v-172h-180v-41h237v-230h-535v724zM204 939h228l127 -164h-188l-53 56l-53 -56h-188z" />
    <glyph glyph-name="edieresis" unicode="&#xeb;" horiz-adv-x="609" 
d="M44 724h521v-242h-223v-39h180v-172h-180v-41h237v-230h-535v724zM448 765q-21 0 -40 8t-33.5 21.5t-22.5 32t-8 39.5t8 39.5t22.5 32t33.5 21.5t40 8t39.5 -8t32.5 -21.5t22 -32t8 -39.5t-8 -39.5t-22 -32t-32.5 -21.5t-39.5 -8zM187 765q-21 0 -39.5 8t-32.5 21.5
t-22 32t-8 39.5t8 39.5t22 32t32.5 21.5t39.5 8t40 -8t33.5 -21.5t22.5 -32t8 -39.5t-8 -39.5t-22.5 -32t-33.5 -21.5t-40 -8z" />
    <glyph glyph-name="igrave" unicode="&#xec;" horiz-adv-x="386" 
d="M44 724h298v-724h-298v724zM-41 939h276l96 -164h-215z" />
    <glyph glyph-name="iacute" unicode="&#xed;" horiz-adv-x="386" 
d="M44 724h298v-724h-298v724zM151 939h276l-157 -164h-215z" />
    <glyph glyph-name="icircumflex" unicode="&#xee;" horiz-adv-x="386" 
d="M44 724h298v-724h-298v724zM79 939h228l127 -164h-188l-53 56l-53 -56h-188z" />
    <glyph glyph-name="idieresis" unicode="&#xef;" horiz-adv-x="386" 
d="M44 724h298v-724h-298v724zM323 765q-21 0 -40 8t-33.5 21.5t-22.5 32t-8 39.5t8 39.5t22.5 32t33.5 21.5t40 8t39.5 -8t32.5 -21.5t22 -32t8 -39.5t-8 -39.5t-22 -32t-32.5 -21.5t-39.5 -8zM62 765q-21 0 -39.5 8t-32.5 21.5t-22 32t-8 39.5t8 39.5t22 32t32.5 21.5
t39.5 8t40 -8t33.5 -21.5t22.5 -32t8 -39.5t-8 -39.5t-22.5 -32t-33.5 -21.5t-40 -8z" />
    <glyph glyph-name="eth" unicode="&#xf0;" horiz-adv-x="828" 
d="M71 290h-55v144h55v290h305q103 0 183.5 -30t137.5 -84q49 -47 76 -110t27 -138q0 -79 -28.5 -141t-76.5 -108q-55 -53 -135 -83t-186 -30h-303v290zM378 236q39 0 66.5 11t43.5 28q15 16 24 38t9 49q0 26 -9 47.5t-24 37.5q-18 18 -45 29.5t-67 11.5h-7v-54h55v-144h-55
v-54h9z" />
    <glyph glyph-name="ntilde" unicode="&#xf1;" horiz-adv-x="842" 
d="M44 724h271l213 -309l2 1v308h268v-724h-271l-213 309l-2 -1v-308h-268v724zM229 759v144q18 26 43.5 43t67.5 17q25 0 46.5 -7.5t41.5 -17t40.5 -17t43.5 -7.5q32 0 57 16t42 39l2 -1v-144q-18 -26 -43.5 -43t-67.5 -17q-25 0 -46.5 7.5t-41.5 17t-40.5 17t-43.5 7.5
q-32 0 -57 -16t-42 -39z" />
    <glyph glyph-name="ograve" unicode="&#xf2;" 
d="M28 362q0 79 31 147t85.5 118t128.5 79t159 29t159 -29t128.5 -79t85.5 -118t31 -147t-31 -147t-85.5 -118.5t-128.5 -79t-159 -28.5t-159 28.5t-128.5 79t-85.5 118.5t-31 147zM320 357q0 -23 9 -43.5t24 -35.5t35.5 -24t43.5 -9t43.5 9t35.5 24t24 35.5t9 43.5t-9 43.5
t-24 35.5t-35.5 24t-43.5 9t-43.5 -9t-35.5 -24t-24 -35.5t-9 -43.5zM198 939h276l96 -164h-215z" />
    <glyph glyph-name="oacute" unicode="&#xf3;" 
d="M28 362q0 79 31 147t85.5 118t128.5 79t159 29t159 -29t128.5 -79t85.5 -118t31 -147t-31 -147t-85.5 -118.5t-128.5 -79t-159 -28.5t-159 28.5t-128.5 79t-85.5 118.5t-31 147zM320 357q0 -23 9 -43.5t24 -35.5t35.5 -24t43.5 -9t43.5 9t35.5 24t24 35.5t9 43.5t-9 43.5
t-24 35.5t-35.5 24t-43.5 9t-43.5 -9t-35.5 -24t-24 -35.5t-9 -43.5zM390 939h276l-157 -164h-215z" />
    <glyph glyph-name="ocircumflex" unicode="&#xf4;" 
d="M28 362q0 79 31 147t85.5 118t128.5 79t159 29t159 -29t128.5 -79t85.5 -118t31 -147t-31 -147t-85.5 -118.5t-128.5 -79t-159 -28.5t-159 28.5t-128.5 79t-85.5 118.5t-31 147zM320 357q0 -23 9 -43.5t24 -35.5t35.5 -24t43.5 -9t43.5 9t35.5 24t24 35.5t9 43.5t-9 43.5
t-24 35.5t-35.5 24t-43.5 9t-43.5 -9t-35.5 -24t-24 -35.5t-9 -43.5zM318 939h228l127 -164h-188l-53 56l-53 -56h-188z" />
    <glyph glyph-name="otilde" unicode="&#xf5;" 
d="M28 362q0 79 31 147t85.5 118t128.5 79t159 29t159 -29t128.5 -79t85.5 -118t31 -147t-31 -147t-85.5 -118.5t-128.5 -79t-159 -28.5t-159 28.5t-128.5 79t-85.5 118.5t-31 147zM320 357q0 -23 9 -43.5t24 -35.5t35.5 -24t43.5 -9t43.5 9t35.5 24t24 35.5t9 43.5t-9 43.5
t-24 35.5t-35.5 24t-43.5 9t-43.5 -9t-35.5 -24t-24 -35.5t-9 -43.5zM240 759v144q18 26 43.5 43t67.5 17q25 0 46.5 -7.5t41.5 -17t40.5 -17t43.5 -7.5q32 0 57 16t42 39l2 -1v-144q-18 -26 -43.5 -43t-67.5 -17q-25 0 -46.5 7.5t-41.5 17t-40.5 17t-43.5 7.5
q-32 0 -57 -16t-42 -39z" />
    <glyph glyph-name="odieresis" unicode="&#xf6;" 
d="M28 362q0 79 31 147t85.5 118t128.5 79t159 29t159 -29t128.5 -79t85.5 -118t31 -147t-31 -147t-85.5 -118.5t-128.5 -79t-159 -28.5t-159 28.5t-128.5 79t-85.5 118.5t-31 147zM320 357q0 -23 9 -43.5t24 -35.5t35.5 -24t43.5 -9t43.5 9t35.5 24t24 35.5t9 43.5t-9 43.5
t-24 35.5t-35.5 24t-43.5 9t-43.5 -9t-35.5 -24t-24 -35.5t-9 -43.5zM562 765q-21 0 -40 8t-33.5 21.5t-22.5 32t-8 39.5t8 39.5t22.5 32t33.5 21.5t40 8t39.5 -8t32.5 -21.5t22 -32t8 -39.5t-8 -39.5t-22 -32t-32.5 -21.5t-39.5 -8zM301 765q-21 0 -39.5 8t-32.5 21.5
t-22 32t-8 39.5t8 39.5t22 32t32.5 21.5t39.5 8t40 -8t33.5 -21.5t22.5 -32t8 -39.5t-8 -39.5t-22.5 -32t-33.5 -21.5t-40 -8z" />
    <glyph glyph-name="divide" unicode="&#xf7;" horiz-adv-x="604" 
d="M302 495q-25 0 -46.5 9.5t-38 26t-26 38t-9.5 46.5t9.5 46.5t26 38t38 26t46.5 9.5t46.5 -9.5t38 -26t26 -38t9.5 -46.5t-9.5 -46.5t-26 -38t-38 -26t-46.5 -9.5zM40 457h524v-190h-524v190zM182 109q0 25 9.5 46.5t26 38t38 26t46.5 9.5t46.5 -9.5t38 -26t26 -38
t9.5 -46.5t-9.5 -46.5t-26 -38t-38 -26t-46.5 -9.5t-46.5 9.5t-38 26t-26 38t-9.5 46.5z" />
    <glyph glyph-name="oslash" unicode="&#xf8;" 
d="M28 362q0 79 31 147t85.5 118t128.5 79t159 29q59 0 112.5 -14t99.5 -40l58 66l87 -75l-54 -61q48 -49 74.5 -112.5t26.5 -136.5q0 -79 -31 -147t-85.5 -118.5t-128.5 -79t-159 -28.5q-57 0 -108.5 13t-96.5 36l-63 -71l-87 75l57 64q-50 50 -78 115.5t-28 140.5z
M320 357q0 -17 5 -35l129 145q-5 1 -11 1.5t-11 0.5q-23 0 -43.5 -9t-35.5 -24t-24 -35.5t-9 -43.5zM544 357q0 16 -5 33l-127 -143q5 -1 10 -1.5t10 -0.5q23 0 43.5 9t35.5 24t24 35.5t9 43.5z" />
    <glyph glyph-name="ugrave" unicode="&#xf9;" horiz-adv-x="832" 
d="M111 104q-14 16 -26 36.5t-21.5 47.5t-15 62t-5.5 79v395h298v-375q0 -51 19.5 -83.5t71.5 -32.5q50 0 69.5 30t19.5 85v376h268v-391q0 -84 -18.5 -138t-47.5 -89q-25 -30 -59 -52t-74 -36.5t-85 -21.5t-91 -7q-96 0 -175.5 29t-127.5 86zM196 939h276l96 -164h-215z
" />
    <glyph glyph-name="uacute" unicode="&#xfa;" horiz-adv-x="832" 
d="M111 104q-14 16 -26 36.5t-21.5 47.5t-15 62t-5.5 79v395h298v-375q0 -51 19.5 -83.5t71.5 -32.5q50 0 69.5 30t19.5 85v376h268v-391q0 -84 -18.5 -138t-47.5 -89q-25 -30 -59 -52t-74 -36.5t-85 -21.5t-91 -7q-96 0 -175.5 29t-127.5 86zM388 939h276l-157 -164h-215z
" />
    <glyph glyph-name="ucircumflex" unicode="&#xfb;" horiz-adv-x="832" 
d="M111 104q-14 16 -26 36.5t-21.5 47.5t-15 62t-5.5 79v395h298v-375q0 -51 19.5 -83.5t71.5 -32.5q50 0 69.5 30t19.5 85v376h268v-391q0 -84 -18.5 -138t-47.5 -89q-25 -30 -59 -52t-74 -36.5t-85 -21.5t-91 -7q-96 0 -175.5 29t-127.5 86zM316 939h228l127 -164h-188
l-53 56l-53 -56h-188z" />
    <glyph glyph-name="udieresis" unicode="&#xfc;" horiz-adv-x="832" 
d="M111 104q-14 16 -26 36.5t-21.5 47.5t-15 62t-5.5 79v395h298v-375q0 -51 19.5 -83.5t71.5 -32.5q50 0 69.5 30t19.5 85v376h268v-391q0 -84 -18.5 -138t-47.5 -89q-25 -30 -59 -52t-74 -36.5t-85 -21.5t-91 -7q-96 0 -175.5 29t-127.5 86zM560 765q-21 0 -40 8
t-33.5 21.5t-22.5 32t-8 39.5t8 39.5t22.5 32t33.5 21.5t40 8t39.5 -8t32.5 -21.5t22 -32t8 -39.5t-8 -39.5t-22 -32t-32.5 -21.5t-39.5 -8zM299 765q-21 0 -39.5 8t-32.5 21.5t-22 32t-8 39.5t8 39.5t22 32t32.5 21.5t39.5 8t40 -8t33.5 -21.5t22.5 -32t8 -39.5t-8 -39.5
t-22.5 -32t-33.5 -21.5t-40 -8z" />
    <glyph glyph-name="yacute" unicode="&#xfd;" horiz-adv-x="818" 
d="M261 306l-266 418h336l82 -165h2l83 165h325l-264 -409v-315h-298v306zM373 939h276l-157 -164h-215z" />
    <glyph glyph-name="thorn" unicode="&#xfe;" horiz-adv-x="706" 
d="M44 724h298v-100q72 -2 119 -12.5t81 -24.5q75 -33 109.5 -90.5t34.5 -129.5q0 -22 -4 -49t-16 -55t-34 -54.5t-58 -48.5q-41 -25 -96 -38.5t-126 -13.5h-10v-108h-298v724zM350 291q38 0 56.5 17.5t18.5 43.5t-18.5 43.5t-56.5 17.5h-8v-122h8z" />
    <glyph glyph-name="ydieresis" unicode="&#xff;" horiz-adv-x="818" 
d="M261 306l-266 418h336l82 -165h2l83 165h325l-264 -409v-315h-298v306zM545 765q-21 0 -40 8t-33.5 21.5t-22.5 32t-8 39.5t8 39.5t22.5 32t33.5 21.5t40 8t39.5 -8t32.5 -21.5t22 -32t8 -39.5t-8 -39.5t-22 -32t-32.5 -21.5t-39.5 -8zM284 765q-21 0 -39.5 8t-32.5 21.5
t-22 32t-8 39.5t8 39.5t22 32t32.5 21.5t39.5 8t40 -8t33.5 -21.5t22.5 -32t8 -39.5t-8 -39.5t-22.5 -32t-33.5 -21.5t-40 -8z" />
    <glyph glyph-name="dotlessi" unicode="&#x131;" horiz-adv-x="386" 
d="M44 724h298v-724h-298v724z" />
    <glyph glyph-name="OE" unicode="&#x152;" horiz-adv-x="1004" 
d="M131 114q-49 47 -76 110t-27 138q0 79 28.5 141t76.5 108q55 53 135 83t186 30h506v-242h-203v-39h160v-172h-160v-41h217v-230h-522q-103 0 -183.5 30t-137.5 84zM340 271q18 -18 45 -29.5t67 -11.5h7v252h-9q-39 0 -66.5 -11t-43.5 -28q-15 -16 -24 -38t-9 -49
q0 -26 9 -47.5t24 -37.5z" />
    <glyph glyph-name="oe" unicode="&#x153;" horiz-adv-x="1004" 
d="M131 114q-49 47 -76 110t-27 138q0 79 28.5 141t76.5 108q55 53 135 83t186 30h506v-242h-203v-39h160v-172h-160v-41h217v-230h-522q-103 0 -183.5 30t-137.5 84zM340 271q18 -18 45 -29.5t67 -11.5h7v252h-9q-39 0 -66.5 -11t-43.5 -28q-15 -16 -24 -38t-9 -49
q0 -26 9 -47.5t24 -37.5z" />
    <glyph glyph-name="Scaron" unicode="&#x160;" horiz-adv-x="638" 
d="M46 294q36 -24 72 -40t67.5 -26.5t57 -15t41.5 -4.5q23 0 30 7.5t7 16.5q0 11 -6 16t-16 7q-13 3 -37 7.5t-53.5 13.5t-60.5 24.5t-59 39.5q-29 26 -46.5 62t-17.5 89q0 54 20.5 99t58.5 77.5t92.5 50t123.5 17.5q33 0 68 -4t69 -11.5t65 -18t56 -23.5v-237
q-35 18 -68.5 30t-62.5 19.5t-51.5 11t-36.5 3.5q-22 0 -29.5 -7t-7.5 -15q0 -11 7 -16.5t16 -8.5q11 -3 34 -8t51 -13t58.5 -21.5t57.5 -34.5q73 -60 73 -156q0 -52 -20.5 -95.5t-59.5 -74.5t-95 -48.5t-127 -17.5q-69 0 -143 15.5t-128 43.5v246zM80 939h188l53 -56l53 56
h188l-127 -164h-228z" />
    <glyph glyph-name="scaron" unicode="&#x161;" horiz-adv-x="638" 
d="M46 294q36 -24 72 -40t67.5 -26.5t57 -15t41.5 -4.5q23 0 30 7.5t7 16.5q0 11 -6 16t-16 7q-13 3 -37 7.5t-53.5 13.5t-60.5 24.5t-59 39.5q-29 26 -46.5 62t-17.5 89q0 54 20.5 99t58.5 77.5t92.5 50t123.5 17.5q33 0 68 -4t69 -11.5t65 -18t56 -23.5v-237
q-35 18 -68.5 30t-62.5 19.5t-51.5 11t-36.5 3.5q-22 0 -29.5 -7t-7.5 -15q0 -11 7 -16.5t16 -8.5q11 -3 34 -8t51 -13t58.5 -21.5t57.5 -34.5q73 -60 73 -156q0 -52 -20.5 -95.5t-59.5 -74.5t-95 -48.5t-127 -17.5q-69 0 -143 15.5t-128 43.5v246zM80 939h188l53 -56l53 56
h188l-127 -164h-228z" />
    <glyph glyph-name="Ydieresis" unicode="&#x178;" horiz-adv-x="818" 
d="M261 306l-266 418h336l82 -165h2l83 165h325l-264 -409v-315h-298v306zM545 765q-21 0 -40 8t-33.5 21.5t-22.5 32t-8 39.5t8 39.5t22.5 32t33.5 21.5t40 8t39.5 -8t32.5 -21.5t22 -32t8 -39.5t-8 -39.5t-22 -32t-32.5 -21.5t-39.5 -8zM284 765q-21 0 -39.5 8t-32.5 21.5
t-22 32t-8 39.5t8 39.5t22 32t32.5 21.5t39.5 8t40 -8t33.5 -21.5t22.5 -32t8 -39.5t-8 -39.5t-22.5 -32t-33.5 -21.5t-40 -8z" />
    <glyph glyph-name="Zcaron" unicode="&#x17d;" horiz-adv-x="723" 
d="M264 480l-1 2h-219v242h663l1 -2l-261 -490l1 -2h242v-230h-680l-1 2zM134 939h188l53 -56l53 56h188l-127 -164h-228z" />
    <glyph glyph-name="zcaron" unicode="&#x17e;" horiz-adv-x="723" 
d="M264 480l-1 2h-219v242h663l1 -2l-261 -490l1 -2h242v-230h-680l-1 2zM134 939h188l53 -56l53 56h188l-127 -164h-228z" />
    <glyph glyph-name="florin" unicode="&#x192;" horiz-adv-x="586" 
d="M30 111q9 -1 20.5 -2t22.5 -1q21 0 38.5 7.5t19.5 32.5l12 129h-113v184h129l5 49q6 66 33 109.5t67 69t87 36t94 10.5q57 0 111 -14v-204q-10 2 -24.5 3.5t-28.5 1.5q-21 0 -38.5 -7.5t-19.5 -32.5l-2 -21h113v-184h-130l-14 -157q-6 -66 -33 -109.5t-67 -69t-87.5 -36
t-93.5 -10.5q-53 0 -101 12v204z" />
    <glyph glyph-name="uni0237" unicode="&#x237;" horiz-adv-x="557" 
d="M30 258q28 -12 57.5 -19t53.5 -7q22 0 36.5 6t23 16.5t12 23t3.5 26.5v420h298v-430q0 -77 -21 -135.5t-61 -95.5q-44 -41 -103.5 -57.5t-128.5 -16.5q-54 0 -99 10t-71 24v235z" />
    <glyph glyph-name="circumflex" unicode="&#x2c6;" horiz-adv-x="646" 
d="M209 939h228l127 -164h-188l-53 56l-53 -56h-188z" />
    <glyph glyph-name="tilde" unicode="&#x2dc;" horiz-adv-x="646" 
d="M131 759v144q18 26 43.5 43t67.5 17q25 0 46.5 -7.5t41.5 -17t40.5 -17t43.5 -7.5q32 0 57 16t42 39l2 -1v-144q-18 -26 -43.5 -43t-67.5 -17q-25 0 -46.5 7.5t-41.5 17t-40.5 17t-43.5 7.5q-32 0 -57 -16t-42 -39z" />
    <glyph glyph-name="endash" unicode="&#x2013;" horiz-adv-x="544" 
d="M30 461h484v-199h-484v199z" />
    <glyph glyph-name="emdash" unicode="&#x2014;" horiz-adv-x="806" 
d="M30 449h746v-172h-746v172z" />
    <glyph glyph-name="quoteleft" unicode="&#x2018;" horiz-adv-x="303" 
d="M126 762h171l-65 -306h-223z" />
    <glyph glyph-name="quoteright" unicode="&#x2019;" horiz-adv-x="303" 
d="M73 762h223l-117 -306h-171z" />
    <glyph glyph-name="quotesinglbase" unicode="&#x201a;" horiz-adv-x="303" 
d="M73 164h223l-117 -306h-171z" />
    <glyph glyph-name="quotedblleft" unicode="&#x201c;" horiz-adv-x="537" 
d="M352 762h179l-65 -306h-205zM9 456l117 306h178l-91 -306h-204z" />
    <glyph glyph-name="quotedblright" unicode="&#x201d;" horiz-adv-x="537" 
d="M235 456l91 306h204l-117 -306h-178zM73 762h205l-91 -306h-179z" />
    <glyph glyph-name="quotedblbase" unicode="&#x201e;" horiz-adv-x="537" 
d="M235 -142l91 306h204l-117 -306h-178zM73 164h205l-91 -306h-179z" />
    <glyph glyph-name="dagger" unicode="&#x2020;" horiz-adv-x="608" 
d="M171 317l-137 -15v260l137 -15v177h266v-177l137 15v-260l-137 15v-537h-266v537z" />
    <glyph glyph-name="daggerdbl" unicode="&#x2021;" horiz-adv-x="608" 
d="M34 197l137 -15v140l-137 -15v250l137 -15v182h266v-182l137 15v-250l-137 15v-140l137 15v-250l-137 15v-182h-266v182l-137 -15v250z" />
    <glyph glyph-name="bullet" unicode="&#x2022;" horiz-adv-x="580" 
d="M190 302l-100 101l100 100l-100 101l159 159l241 -240l-101 -101l101 -100l-101 -101l101 -100l-160 -160l-240 241z" />
    <glyph glyph-name="ellipsis" unicode="&#x2026;" horiz-adv-x="1072" 
d="M40 143q0 32 11.5 60t32.5 49t49 33t61 12t61 -12t49 -33t32.5 -49t11.5 -60t-11.5 -60t-32.5 -49t-49 -33t-61 -12t-61 12t-49 33t-32.5 49t-11.5 60zM382 143q0 32 11.5 60t32.5 49t49 33t61 12t61 -12t49 -33t32.5 -49t11.5 -60t-11.5 -60t-32.5 -49t-49 -33t-61 -12
t-61 12t-49 33t-32.5 49t-11.5 60zM724 143q0 32 11.5 60t32.5 49t49 33t61 12t61 -12t49 -33t32.5 -49t11.5 -60t-11.5 -60t-32.5 -49t-49 -33t-61 -12t-61 12t-49 33t-32.5 49t-11.5 60z" />
    <glyph glyph-name="perthousand" unicode="&#x2030;" horiz-adv-x="1340" 
d="M228 362q-51 0 -88 13.5t-61.5 38.5t-36.5 59.5t-12 75.5t12 75.5t36.5 59t61.5 38.5t88 14t88 -14t61.5 -38.5t36.5 -59t12 -75.5t-12 -75.5t-36.5 -59.5t-61.5 -38.5t-88 -13.5zM610 724h198l-493 -724h-198zM228 514q14 0 18.5 11t4.5 24t-4.5 24t-18.5 11t-18.5 -11
t-4.5 -24t4.5 -24t18.5 -11zM914 175q0 41 12 75.5t36.5 59t61.5 38.5t88 14t88 -14t61.5 -38.5t36.5 -59t12 -75.5t-12 -75.5t-36.5 -59.5t-61.5 -38.5t-88 -13.5t-88 13.5t-61.5 38.5t-36.5 59.5t-12 75.5zM499 175q0 41 12 75.5t36.5 59t61.5 38.5t88 14t88 -14
t61.5 -38.5t36.5 -59t12 -75.5t-12 -75.5t-36.5 -59.5t-61.5 -38.5t-88 -13.5t-88 13.5t-61.5 38.5t-36.5 59.5t-12 75.5zM1089 175q0 -13 4.5 -24t18.5 -11t18.5 11t4.5 24t-4.5 24t-18.5 11t-18.5 -11t-4.5 -24zM674 175q0 -13 4.5 -24t18.5 -11t18.5 11t4.5 24t-4.5 24
t-18.5 11t-18.5 -11t-4.5 -24z" />
    <glyph glyph-name="guilsinglleft" unicode="&#x2039;" horiz-adv-x="393" 
d="M20 362l150 219h199l-150 -219l150 -219h-199z" />
    <glyph glyph-name="guilsinglright" unicode="&#x203a;" horiz-adv-x="393" 
d="M174 362l-150 219h199l150 -219l-150 -219h-199z" />
    <glyph glyph-name="Euro" unicode="&#x20ac;" horiz-adv-x="651" 
d="M10 344h51v29h-51v102h67q17 58 52 106t84.5 82t112.5 53t137 19q35 0 72 -4.5t70 -15.5v-226q-25 11 -52 16t-51 5q-33 0 -58.5 -9t-44.5 -26h90v-102h-133v-29h133v-102h-91q18 -18 43 -28t58 -10q27 0 54.5 7t55.5 18v-220q-35 -10 -71 -15t-74 -5q-73 0 -135 18
t-111.5 51.5t-85 80t-53.5 103.5h-69v102z" />
    <glyph glyph-name="trademark" unicode="&#x2122;" horiz-adv-x="737" 
d="M337 724h125l45 -63l42 63h126v-290h-133v102h-2l-34 -54l-39 54h-2v-102h-128v290zM109 610h-69v114h272v-114h-69v-176h-134v176z" />
    </font>
</defs>
</svg>
