<?xml version="1.0" standalone="no"?>
<!DOCTYPE svg PUBLIC "-//W3C//DTD SVG 1.1//EN" "http://www.w3.org/Graphics/SVG/1.1/DTD/svg11.dtd" >
<svg xmlns="http://www.w3.org/2000/svg" xmlns:xlink="http://www.w3.org/1999/xlink" version="1.1">
<metadata>
Created by FontForge 20190801 at Wed Feb  7 00:57:30 2018
 By Unknown
Copyright (c) 2011 Fabian Leuenberger and EuropaType. All rights reserved. This Font Software may not be reproduced, modified, disclosed or transferred without the express written approval of EuropaType. EUROPA is a trademark of EuropaType and may be registered in certain jurisdictions. This Font Software is original artwork of Fabian Leuenberger and EuropaType. The design may be protected in certain jurisdictions.
</metadata>
<defs>
<font id="Europa-Bold" horiz-adv-x="580" >
  <font-face 
    font-family="Europa-Bold"
    font-weight="700"
    font-stretch="normal"
    units-per-em="1000"
    panose-1="2 0 0 0 0 0 0 0 0 0"
    ascent="750"
    descent="-250"
    x-height="474"
    cap-height="700"
    bbox="-180 -276 1000 992"
    underline-thickness="38"
    underline-position="-77"
    unicode-range="U+0020-2122"
  />
<missing-glyph horiz-adv-x="600" 
d="M36 0v700h528v-700h-528zM111 628v-556h378v556h-378zM347 432q0 19 -14.5 32t-34.5 13q-21 0 -36.5 -12.5t-21.5 -24.5l-5 -13l-55 25q1 4 3.5 9.5t12 20.5t21.5 26.5t33.5 21t47.5 9.5q48 0 80.5 -31t32.5 -76q0 -32 -14 -52.5t-45 -46.5q-14 -13 -16.5 -18t-2.5 -20
v-31h-65v44q0 6 0.5 10.5t2 9t2 7.5t4 7t5 6t7 7t7.5 7t10 8t11 9q17 15 23.5 25.5t6.5 27.5zM260 192q0 16 12 28t28 12q17 0 29.5 -12t12.5 -28q0 -17 -12.5 -29t-29.5 -12t-28.5 12t-11.5 29z" />
    <glyph glyph-name="ff" unicode="ff" horiz-adv-x="691" 
d="M230 572v-98h192v112q0 94 52 138t120 44q29 0 57 -7t41 -14l13 -7l-45 -101q-20 17 -54 17q-27 0 -45.5 -20.5t-18.5 -63.5v-98h120v-106h-120v-368h-120v368h-192v-368h-120v368h-94v106h94v112q0 94 52 138t120 44q29 0 57 -7t41 -14l13 -7l-45 -101q-20 17 -54 17
q-27 0 -45.5 -20.5t-18.5 -63.5z" />
    <glyph glyph-name="fi" unicode="fi" horiz-adv-x="582" 
d="M16 368v106h94v111q0 85 57 134t144 49q92 0 144.5 -49.5t52.5 -117.5v-11q0 -25 -18 -42t-43 -17t-42 17t-17 42v7q0 28 -21.5 45.5t-55.5 17.5q-33 0 -57 -22t-24 -63v-101h97v-106h-97v-368h-120v368h-94zM388 0v474h120v-474h-120z" />
    <glyph glyph-name="ffi" unicode="ffi" horiz-adv-x="860" 
d="M388 0v590v7q0 28 -21.5 45.5t-55.5 17.5q-33 0 -57 -22t-24 -63v-101h95v-106h-95v-368h-120v368h-94v106h94v111q0 85 57 134t144 49t139 -44q53 44 139 44q92 0 144.5 -49.5t52.5 -117.5v-11q0 -25 -18 -42t-43 -17t-42 17t-17 42v7q0 28 -21.5 45.5t-55.5 17.5
q-33 0 -57 -22t-24 -63v-101h95v-106h-95v-368h-120zM666 0v474h120v-474h-120z" />
    <glyph glyph-name="ffj" unicode="ffj" horiz-adv-x="860" 
d="M16 368v106h94v111q0 85 57 134t144 49q84 0 139 -45q56 45 139 45q92 0 144.5 -49.5t52.5 -117.5v-11q0 -25 -18 -42t-43 -17t-42 17t-17 42v7q0 28 -21.5 45.5t-55.5 17.5q-33 0 -57 -22t-24 -63v-101h92v-106h-92v-368h-120v597q0 28 -21.5 45.5t-55.5 17.5
q-33 0 -57 -22t-24 -63v-101h97v-106h-97v-368h-120v368h-94zM498 -211l44 100q27 -19 49 -19q15 0 25.5 2.5t23.5 11.5t19.5 30t6.5 54v506h120v-517q0 -55 -17 -96t-44.5 -62t-56.5 -31t-58 -10q-60 0 -112 31z" />
    <glyph glyph-name="fl" unicode="fl" horiz-adv-x="583" 
d="M389 0v575q0 41 -22.5 63t-55.5 22t-57.5 -22t-24.5 -63v-101h97v-106h-97v-368h-120v368h-93v106h93v111q0 85 57.5 134t144.5 49t142.5 -49t55.5 -134v-585h-120z" />
    <glyph glyph-name="ffl" unicode="ffl" horiz-adv-x="853" 
d="M659 0v575q0 41 -22.5 63t-55.5 22t-57.5 -22t-24.5 -63v-101h97v-106h-97v-368h-120v368h-158v-368h-120v368h-85v106h85v111q0 85 57 134t144 49q86 0 138 -44q53 44 141 44q87 0 142.5 -49t55.5 -134v-585h-120zM221 474h158v123q0 28 -21.5 45.5t-55.5 17.5
q-33 0 -57 -22t-24 -63v-101z" />
    <glyph glyph-name="fft" unicode="fft" horiz-adv-x="1001" 
d="M222 572v-98h192v112q0 94 52 138t120 44q29 0 57 -7t41 -14l13 -7l-45 -101q-20 17 -54 17q-27 0 -45.5 -20.5t-18.5 -63.5v-98h166v129h120v-129h143v-106h-143v-193q0 -75 63 -75q12 0 24.5 4t18.5 8l7 5l43 -98q-45 -31 -114 -31q-71 0 -116.5 44.5t-45.5 121.5v214
h-166v-368h-120v368h-192v-368h-120v368h-86v106h86v112q0 94 52 138t120 44q29 0 57 -7t41 -14l13 -7l-45 -101q-20 17 -54 17q-27 0 -45.5 -20.5t-18.5 -63.5z" />
    <glyph glyph-name=".notdef" horiz-adv-x="600" 
d="M36 0v700h528v-700h-528zM111 628v-556h378v556h-378zM347 432q0 19 -14.5 32t-34.5 13q-21 0 -36.5 -12.5t-21.5 -24.5l-5 -13l-55 25q1 4 3.5 9.5t12 20.5t21.5 26.5t33.5 21t47.5 9.5q48 0 80.5 -31t32.5 -76q0 -32 -14 -52.5t-45 -46.5q-14 -13 -16.5 -18t-2.5 -20
v-31h-65v44q0 6 0.5 10.5t2 9t2 7.5t4 7t5 6t7 7t7.5 7t10 8t11 9q17 15 23.5 25.5t6.5 27.5zM260 192q0 16 12 28t28 12q17 0 29.5 -12t12.5 -28q0 -17 -12.5 -29t-29.5 -12t-28.5 12t-11.5 29z" />
    <glyph glyph-name=".null" horiz-adv-x="0" 
 />
    <glyph glyph-name="nonmarkingreturn" horiz-adv-x="333" 
 />
    <glyph glyph-name="space" unicode=" " horiz-adv-x="294" 
 />
    <glyph glyph-name="space" unicode="&#xa0;" horiz-adv-x="294" 
 />
    <glyph glyph-name="exclam" unicode="!" horiz-adv-x="306" 
d="M215 700l-5 -500h-114l-5 500h124zM74 67q0 33 23 56t56 23t56 -23t23 -56t-23 -56t-56 -23t-56 23t-23 56z" />
    <glyph glyph-name="quotedbl" unicode="&#x22;" horiz-adv-x="400" 
d="M60 452v248h106v-248h-106zM234 452v248h106v-248h-106z" />
    <glyph glyph-name="numbersign" unicode="#" horiz-adv-x="634" 
d="M69 418v88h129l30 211l87 -12l-28 -199h109l30 211l87 -12l-28 -199h117v-88h-129l-17 -120h116v-88h-128l-32 -227l-88 12l30 215h-108l-32 -227l-88 12l30 215h-117v88h130l17 120h-117zM275 418l-17 -120h109l17 120h-109z" />
    <glyph glyph-name="dollar" unicode="$" 
d="M271 -94v83q-43 4 -83 19.5t-65.5 35.5t-45 39.5t-27.5 32.5l-9 13l93 74q2 -3 5.5 -9t17 -22t28 -28.5t38 -25t48.5 -16.5v199q-42 15 -73.5 32t-62 42t-47 60.5t-16.5 78.5q0 72 54.5 129.5t144.5 66.5v84h63v-84q54 -6 101.5 -31.5t68.5 -48.5l20 -22l-90 -75
q-4 5 -12 14t-34 26t-54 23v-196q3 -2 11 -4q46 -17 77 -33t61 -40.5t44.5 -59.5t14.5 -80q0 -83 -58.5 -133.5t-149.5 -59.5v-84h-63zM420 183q0 34 -21 55t-65 40v-175q37 6 61.5 26.5t24.5 53.5zM194 514q0 -31 18.5 -51t58.5 -38v171q-35 -8 -56 -30.5t-21 -51.5z" />
    <glyph glyph-name="percent" unicode="%" horiz-adv-x="712" 
d="M184 712q67 0 114.5 -46.5t47.5 -112.5t-47.5 -112.5t-114.5 -46.5t-114.5 46.5t-47.5 112.5t47.5 112.5t114.5 46.5zM184 471q35 0 58 23.5t23 58.5t-23 58.5t-58 23.5q-36 0 -59 -23.5t-23 -58.5t23 -58.5t59 -23.5zM528 306q67 0 114.5 -46.5t47.5 -112.5
t-47.5 -112.5t-114.5 -46.5t-114.5 46.5t-47.5 112.5t47.5 112.5t114.5 46.5zM528 65q35 0 58 23.5t23 58.5t-23 58.5t-58 23.5q-36 0 -59 -23.5t-23 -58.5t23 -58.5t59 -23.5zM89 7l471 724l57 -39l-471 -724z" />
    <glyph glyph-name="ampersand" unicode="&#x26;" horiz-adv-x="695" 
d="M507 384h115q0 -69 -10 -122.5t-20 -72.5l-11 -19l114 -100l-70 -82l-107 95q-38 -43 -99 -69t-132 -26q-100 0 -166.5 56t-66.5 126q0 52 28.5 95t109.5 104q-98 90 -98 164t54 126.5t137 52.5t137 -52.5t54 -126.5q0 -43 -23.5 -79t-89.5 -92l129 -114q15 22 15 136z
M287 98q88 0 147 59l-159 139q-67 -57 -84 -76.5t-17 -42.5q0 -36 34 -57.5t79 -21.5zM210 533q0 -5 1 -10t2 -9.5t4 -9.5t5 -8.5t7 -9.5l7.5 -9t9.5 -10t10.5 -10t12.5 -11.5t13 -12.5q47 40 62 60.5t15 39.5q0 30 -23 49.5t-51 19.5q-30 0 -52.5 -19.5t-22.5 -49.5z" />
    <glyph glyph-name="quotesingle" unicode="'" horiz-adv-x="186" 
d="M40 454v246h106v-246h-106z" />
    <glyph glyph-name="parenleft" unicode="(" horiz-adv-x="312" 
d="M166 295q0 -66 13 -132t32 -113t38 -84.5t32 -56.5l13 -19l-98 -60q-6 8 -16 22.5t-35.5 63t-45 99.5t-35.5 127.5t-16 152.5t15 151.5t37 129.5t44 97t37 65l15 21l98 -59q-5 -7 -13.5 -19.5t-31 -54.5t-39 -86.5t-30.5 -111.5t-14 -133z" />
    <glyph glyph-name="parenright" unicode=")" horiz-adv-x="312" 
d="M146 295q0 66 -13 132t-32 113t-38 84.5t-32 56.5l-13 19l98 59q6 -8 16 -22.5t35.5 -62.5t45 -99t35.5 -127.5t16 -152.5t-15 -151.5t-37 -129.5t-44 -97.5t-37 -64.5l-15 -22l-98 60q5 7 13.5 19.5t31 54.5t39 86.5t30.5 111.5t14 133z" />
    <glyph glyph-name="asterisk" unicode="*" horiz-adv-x="398" 
d="M199 453l-74 -105l-69 49l77 105l-127 40l27 79l124 -41v132h84v-132l124 41l27 -79l-127 -40l77 -105l-69 -49z" />
    <glyph glyph-name="plus" unicode="+" horiz-adv-x="520" 
d="M497 302v-112h-177v-190h-120v190h-177v112h177v184h120v-184h177z" />
    <glyph glyph-name="comma" unicode="," horiz-adv-x="241" 
d="M99 97l100 -35l-87 -233l-92 32z" />
    <glyph glyph-name="hyphen" unicode="-" horiz-adv-x="333" 
d="M33 190v114h267v-114h-267z" />
    <glyph glyph-name="period" unicode="." horiz-adv-x="262" 
d="M52 67q0 33 23 56t56 23t56 -23t23 -56t-23 -56t-56 -23t-56 23t-23 56z" />
    <glyph glyph-name="slash" unicode="/" horiz-adv-x="520" 
d="M502 757l-400 -898l-96 43l400 898z" />
    <glyph glyph-name="zero" unicode="0" horiz-adv-x="606" 
d="M304 712q65 0 116 -29.5t82 -80.5t47.5 -115t16.5 -137t-16.5 -137t-47.5 -115t-82 -80.5t-116 -29.5q-85 0 -146.5 51.5t-89.5 132t-28 178.5t28 178.5t89.5 132t146.5 51.5zM304 100q69 0 105.5 70.5t36.5 179.5t-36.5 179.5t-105.5 70.5q-70 0 -107 -70.5t-37 -179.5
t37 -179.5t107 -70.5z" />
    <glyph glyph-name="one" unicode="1" horiz-adv-x="444" 
d="M16 530l213 170h99v-700h-120v540l-123 -98z" />
    <glyph glyph-name="two" unicode="2" horiz-adv-x="555" 
d="M40 0l257 326q3 3 18 21.5t22.5 30t19 31t16.5 40.5t5 43q0 44 -28.5 76t-75.5 32q-29 0 -52.5 -10.5t-36.5 -25.5t-21.5 -30t-11.5 -26l-3 -10l-107 39q2 7 6 19t22 42t41.5 53t67 42t95.5 19q108 0 166 -62.5t58 -155.5q0 -89 -61 -172l-161 -208h225v-114h-461z" />
    <glyph glyph-name="three" unicode="3" horiz-adv-x="570" 
d="M386 502q0 42 -29.5 70t-75.5 28q-25 0 -47 -9t-34.5 -21t-21.5 -24.5t-12 -21.5l-4 -9l-104 49q2 6 6.5 16t23 35.5t41.5 45t64 35.5t88 16q98 0 162 -57.5t64 -152.5q0 -28 -9 -53.5t-21.5 -42t-25 -28.5t-21.5 -18l-9 -5q4 -1 11 -3.5t25 -14.5t31.5 -28t24.5 -46
t11 -68q0 -93 -69 -150t-173 -57q-55 0 -100 16.5t-71 40.5t-43.5 48t-23.5 41l-7 16l98 57q1 -4 4 -11.5t14.5 -26t26.5 -32.5t42.5 -25.5t59.5 -11.5q56 0 89 27t33 68q0 51 -36.5 75t-90.5 24h-50v110h38q121 0 121 98z" />
    <glyph glyph-name="four" unicode="4" horiz-adv-x="593" 
d="M-4 152l356 548h134v-436h77v-112h-77v-152h-120v152h-370zM192 264h176v271z" />
    <glyph glyph-name="five" unicode="5" horiz-adv-x="585" 
d="M542 230q0 -115 -74.5 -178.5t-174.5 -63.5q-52 0 -96 16.5t-70.5 40.5t-45 48t-25.5 41l-8 16l100 57q1 -4 4.5 -11.5t15.5 -26t27 -32.5t41 -25.5t57 -11.5q59 0 93.5 37t34.5 93q0 59 -37 94.5t-112 35.5q-43 0 -90 -19t-72 -38l-26 -19v416h440v-114h-320v-137
q39 21 99 21q100 0 169.5 -62t69.5 -178z" />
    <glyph glyph-name="six" unicode="6" horiz-adv-x="564" 
d="M398 670l-130 -211q13 3 24 3q108 0 172.5 -71t64.5 -166q0 -94 -68.5 -165.5t-176.5 -71.5t-176.5 71t-68.5 164q0 73 39 145l220 364zM284 350q-53 0 -88.5 -34.5t-35.5 -90.5t35.5 -90.5t88.5 -34.5t88.5 34.5t35.5 90.5t-35.5 90.5t-88.5 34.5z" />
    <glyph glyph-name="seven" unicode="7" horiz-adv-x="526" 
d="M36 586v114h500l-375 -724l-102 53l288 557h-311z" />
    <glyph glyph-name="eight" unicode="8" horiz-adv-x="576" 
d="M288 712q104 0 162 -59t58 -143q0 -41 -19.5 -75.5t-38.5 -48.5l-20 -14q4 -2 10.5 -5t23.5 -17t30 -31t23.5 -47t10.5 -66q0 -92 -65 -155t-175 -63t-175 63t-65 155q0 36 10 66t24.5 47.5t29 30t24.5 17.5l10 5q-3 2 -8.5 5.5t-19 16.5t-23.5 27.5t-18.5 38.5t-8.5 50
q0 84 58 143t162 59zM288 98q56 0 87.5 32t31.5 78t-31.5 77t-87.5 31t-87.5 -31t-31.5 -77t31.5 -78t87.5 -32zM389 509q0 42 -29 67.5t-72 25.5t-72 -25.5t-29 -67.5t29 -67.5t72 -25.5t72 25.5t29 67.5z" />
    <glyph glyph-name="nine" unicode="9" horiz-adv-x="564" 
d="M168 34l128 207q-13 -3 -24 -3q-104 0 -170.5 71.5t-66.5 165.5t68.5 165.5t176.5 71.5t176.5 -71t68.5 -164q0 -69 -40 -145l-217 -360zM280 350q53 0 88.5 34.5t35.5 90.5t-35.5 90.5t-88.5 34.5t-88.5 -34.5t-35.5 -90.5t35.5 -90.5t88.5 -34.5z" />
    <glyph glyph-name="colon" unicode=":" horiz-adv-x="274" 
d="M58 67q0 33 23 56t56 23t56 -23t23 -56t-23 -56t-56 -23t-56 23t-23 56zM58 407q0 33 23 56t56 23t56 -23t23 -56t-23 -56t-56 -23t-56 23t-23 56z" />
    <glyph glyph-name="semicolon" unicode=";" horiz-adv-x="243" 
d="M42 406q0 33 23.5 56.5t55.5 23.5q33 0 56.5 -23.5t23.5 -56.5q0 -32 -23.5 -55.5t-56.5 -23.5q-32 0 -55.5 23.5t-23.5 55.5zM99 97l100 -35l-87 -233l-92 32z" />
    <glyph glyph-name="less" unicode="&#x3c;" horiz-adv-x="520" 
d="M18 221v100l462 197v-123l-303 -124l303 -125v-123z" />
    <glyph glyph-name="equal" unicode="=" horiz-adv-x="520" 
d="M45 116v110h430v-110h-430zM45 302v110h430v-110h-430z" />
    <glyph glyph-name="greater" unicode="&#x3e;" horiz-adv-x="520" 
d="M506 321v-100l-462 -198v123l303 125l-303 124v123z" />
    <glyph glyph-name="question" unicode="?" horiz-adv-x="489" 
d="M329 512q0 35 -27.5 60.5t-65.5 25.5t-67.5 -24t-40.5 -48l-10 -24l-102 47q2 7 6 18t22 39t40.5 49.5t63 39t88.5 17.5q90 0 151.5 -58t61.5 -142q0 -42 -16 -76.5t-35.5 -55t-59.5 -55.5q-27 -24 -32 -33t-5 -36v-51h-119v74q0 11 0.5 19.5t3.5 17.5t4.5 14.5t8 13.5
t9 12t12.5 13t14 12.5t18 15.5t20 17q32 28 44.5 47t12.5 51zM163 67q0 33 23 56t56 23t56 -23t23 -56t-23 -56t-56 -23t-56 23t-23 56z" />
    <glyph glyph-name="at" unicode="@" horiz-adv-x="799" 
d="M567 110l35 -75q-88 -47 -192 -47q-150 0 -256 106t-106 256t106 256t256 106q148 0 244.5 -101t96.5 -246q0 -63 -14.5 -108t-38 -66.5t-47 -30t-48.5 -8.5q-34 0 -63.5 17t-38.5 49l-5 -7.5t-14 -15.5t-24.5 -20t-35.5 -16t-46 -7q-55 0 -96 36t-41 93q0 53 43 89
t97 36q32 0 58.5 -8.5t36.5 -17.5l11 -8v17q0 38 -25.5 57.5t-58.5 19.5q-26 0 -52 -9t-39 -19l-13 -9l-40 72q7 5 20 13t51.5 21t75.5 13q74 0 120 -39.5t46 -105.5v-121q0 -52 36 -52q11 0 18.5 3t18 14t16 41t5.5 77q0 114 -70 188.5t-184 74.5q-116 0 -195.5 -80
t-79.5 -198q0 -117 79.5 -197.5t195.5 -80.5q85 0 157 38zM401 232q26 0 47 10t29 20l8 11v29q-25 28 -84 28q-34 0 -53 -13.5t-19 -35.5t19 -35.5t53 -13.5z" />
    <glyph glyph-name="A" unicode="A" horiz-adv-x="678" 
d="M6 0l272 700h122l272 -700h-121l-64 166h-296l-64 -166h-121zM339 549l-105 -273h210z" />
    <glyph glyph-name="B" unicode="B" horiz-adv-x="590" 
d="M74 0v700h227q95 0 159 -48.5t64 -151.5q0 -38 -17 -69.5t-32.5 -44t-23.5 -15.5q5 -1 15.5 -5.5t27 -17t31 -29.5t25 -47t10.5 -65q0 -91 -67 -149t-167 -58h-252zM322 114q53 0 84.5 23t31.5 70t-31.5 70t-84.5 23h-128v-186h128zM194 414h103q105 0 105 86
q0 44 -29 65t-76 21h-103v-172z" />
    <glyph glyph-name="B" unicode="&#xe000;" horiz-adv-x="590" 
d="M74 0v700h227q95 0 159 -48.5t64 -151.5q0 -38 -17 -69.5t-32.5 -44t-23.5 -15.5q5 -1 15.5 -5.5t27 -17t31 -29.5t25 -47t10.5 -65q0 -91 -67 -149t-167 -58h-252zM322 114q53 0 84.5 23t31.5 70t-31.5 70t-84.5 23h-128v-186h128zM194 414h103q105 0 105 86
q0 44 -29 65t-76 21h-103v-172z" />
    <glyph glyph-name="C" unicode="C" horiz-adv-x="676" 
d="M389 100q34 0 66.5 9t53.5 21.5t37.5 25t23.5 21.5l8 9l80 -79q-4 -5 -11 -13t-32.5 -28.5t-54.5 -36t-75 -28.5t-96 -13q-152 0 -253.5 103.5t-101.5 258.5t101.5 258.5t253.5 103.5q47 0 91 -11.5t73 -27.5t51.5 -32t33.5 -27l10 -12l-81 -79q-3 3 -7.5 8.5t-22 18.5
t-36.5 23t-49.5 18.5t-62.5 8.5q-101 0 -167 -73t-66 -177t66 -177t167 -73z" />
    <glyph glyph-name="D" unicode="D" horiz-adv-x="680" 
d="M300 700q152 0 249 -99t97 -251t-97 -251t-249 -99h-226v700h226zM302 114q99 0 160.5 69t61.5 167q0 99 -61.5 167.5t-160.5 68.5h-108v-472h108z" />
    <glyph glyph-name="E" unicode="E" horiz-adv-x="546" 
d="M194 586v-170h280v-114h-280v-188h310v-114h-430v700h424v-114h-304z" />
    <glyph glyph-name="E" unicode="&#xe001;" horiz-adv-x="546" 
d="M194 586v-170h280v-114h-280v-188h310v-114h-430v700h424v-114h-304z" />
    <glyph glyph-name="F" unicode="F" horiz-adv-x="527" 
d="M194 586v-171h275v-114h-275v-301h-120v700h415v-114h-295z" />
    <glyph glyph-name="G" unicode="G" horiz-adv-x="713" 
d="M402 100q44 0 79.5 8.5t48.5 17.5l13 8v148h-159v112h277v-318q-4 -4 -11 -9.5t-31.5 -21t-52 -27t-72 -21t-92.5 -9.5q-155 0 -261.5 104t-106.5 258q0 155 104.5 258.5t258.5 103.5q48 0 92.5 -11t73.5 -26t51 -30.5t32 -26.5l10 -11l-82 -80q-2 3 -7 8t-21 17.5
t-35 22t-50 17.5t-64 8q-104 0 -172.5 -73.5t-68.5 -176.5t71 -176.5t175 -73.5z" />
    <glyph glyph-name="H" unicode="H" horiz-adv-x="687" 
d="M493 415v285h120v-700h-120v301h-299v-301h-120v700h120v-285h299z" />
    <glyph glyph-name="I" unicode="I" horiz-adv-x="296" 
d="M88 0v700h120v-700h-120z" />
    <glyph glyph-name="J" unicode="J" horiz-adv-x="521" 
d="M327 216v484h120v-480q0 -110 -63.5 -171t-175.5 -61q-39 0 -74.5 12t-58.5 29t-40 34.5t-25 29.5l-7 12l88 74q2 -3 5.5 -8.5t15 -18.5t24 -23t32.5 -18.5t40 -8.5q63 0 91 33.5t28 80.5z" />
    <glyph glyph-name="K" unicode="K" horiz-adv-x="628" 
d="M194 700v-314l250 314h150l-274 -344l308 -356h-159l-275 316v-316h-120v700h120z" />
    <glyph glyph-name="L" unicode="L" horiz-adv-x="500" 
d="M74 0v700h120v-586h298v-114h-418z" />
    <glyph glyph-name="M" unicode="M" horiz-adv-x="826" 
d="M74 700h111l228 -352l228 352h111v-700h-120v470l-219 -333l-219 333v-470h-120v700z" />
    <glyph glyph-name="N" unicode="N" horiz-adv-x="726" 
d="M74 700h108l350 -482v482h120v-700h-108l-350 481v-481h-120v700z" />
    <glyph glyph-name="O" unicode="O" horiz-adv-x="776" 
d="M388 712q153 0 253.5 -103t100.5 -259t-100.5 -259t-253.5 -103t-253.5 103t-100.5 259t100.5 259t253.5 103zM388 102q103 0 167.5 72t64.5 176t-64.5 176t-167.5 72t-167.5 -72t-64.5 -176t64.5 -176t167.5 -72z" />
    <glyph glyph-name="P" unicode="P" horiz-adv-x="566" 
d="M297 366q60 0 92.5 29.5t32.5 80.5t-32.5 80.5t-92.5 29.5h-103v-220h103zM74 0v700h238q103 0 167.5 -63.5t64.5 -160.5t-64.5 -160.5t-167.5 -63.5h-118v-252h-120z" />
    <glyph glyph-name="Q" unicode="Q" horiz-adv-x="791" 
d="M388 712q153 0 253.5 -103t100.5 -259q0 -117 -62 -211l99 -85l-77 -88l-103 89q-90 -67 -211 -67q-153 0 -253.5 103t-100.5 259t100.5 259t253.5 103zM387 240l77 87l124 -108q32 58 32 131q0 104 -64.5 176t-167.5 72t-167.5 -72t-64.5 -176t64.5 -176t167.5 -72
q66 0 120 32z" />
    <glyph glyph-name="R" unicode="R" horiz-adv-x="583" 
d="M74 0v700h230q104 0 168 -61t64 -157q0 -80 -41 -135.5t-115 -74.5l175 -272h-140l-166 264h-55v-264h-120zM289 378q59 0 92 26.5t33 77.5t-33 77.5t-92 26.5h-95v-208h95z" />
    <glyph glyph-name="S" unicode="S" horiz-adv-x="595" 
d="M424 183q0 41 -29 62.5t-99 46.5q-45 16 -78.5 32.5t-68.5 42.5t-53.5 63.5t-18.5 83.5q0 78 64 138t165 60q41 0 79.5 -11.5t64 -28t45.5 -32.5t29 -28l10 -11l-83 -82q-2 3 -6.5 8.5t-19.5 19t-30.5 24t-40 19t-48.5 8.5q-45 0 -76 -24.5t-31 -59.5q0 -28 20.5 -49.5
t41.5 -31t82 -32.5q5 -2 7 -3q46 -17 77 -33t60.5 -41t44 -60t14.5 -81q0 -92 -70 -143.5t-174 -51.5q-49 0 -93.5 14.5t-72.5 36t-49.5 42.5t-30.5 35l-10 15l90 76q2 -4 7 -11t21 -25.5t34 -32t46 -25t58 -11.5q50 0 86 20.5t36 60.5z" />
    <glyph glyph-name="S" unicode="&#xe002;" horiz-adv-x="595" 
d="M424 183q0 41 -29 62.5t-99 46.5q-45 16 -78.5 32.5t-68.5 42.5t-53.5 63.5t-18.5 83.5q0 78 64 138t165 60q41 0 79.5 -11.5t64 -28t45.5 -32.5t29 -28l10 -11l-83 -82q-2 3 -6.5 8.5t-19.5 19t-30.5 24t-40 19t-48.5 8.5q-45 0 -76 -24.5t-31 -59.5q0 -28 20.5 -49.5
t41.5 -31t82 -32.5q5 -2 7 -3q46 -17 77 -33t60.5 -41t44 -60t14.5 -81q0 -92 -70 -143.5t-174 -51.5q-49 0 -93.5 14.5t-72.5 36t-49.5 42.5t-30.5 35l-10 15l90 76q2 -4 7 -11t21 -25.5t34 -32t46 -25t58 -11.5q50 0 86 20.5t36 60.5z" />
    <glyph glyph-name="T" unicode="T" horiz-adv-x="534" 
d="M207 0v586h-193v114h506v-114h-193v-586h-120z" />
    <glyph glyph-name="U" unicode="U" horiz-adv-x="688" 
d="M494 269v431h120v-446q0 -117 -74 -191.5t-196 -74.5t-196 74.5t-74 191.5v446h120v-431q0 -77 38.5 -122t111.5 -45t111.5 45t38.5 122z" />
    <glyph glyph-name="V" unicode="V" horiz-adv-x="630" 
d="M628 700l-313 -724l-313 724h131l186 -449l184 449h125z" />
    <glyph glyph-name="W" unicode="W" horiz-adv-x="983" 
d="M979 700l-276 -724l-210 525l-213 -525l-276 724h136l148 -420l159 420h99l156 -420l152 420h125z" />
    <glyph glyph-name="X" unicode="X" horiz-adv-x="612" 
d="M457 0l-157 264l-153 -264h-135l226 362l-212 338h142l143 -242l141 242h132l-212 -338l228 -362h-143z" />
    <glyph glyph-name="Y" unicode="Y" horiz-adv-x="614" 
d="M367 276v-276h-120v276l-239 424h132l171 -313l171 313h124z" />
    <glyph glyph-name="Z" unicode="Z" horiz-adv-x="597" 
d="M48 700h535l-364 -586h344v-114h-549l366 586h-332v114z" />
    <glyph glyph-name="bracketleft" unicode="[" horiz-adv-x="330" 
d="M184 660v-794h114v-96h-224v986h224v-96h-114z" />
    <glyph glyph-name="backslash" unicode="\" horiz-adv-x="520" 
d="M418 -141l-400 898l96 43l400 -898z" />
    <glyph glyph-name="bracketright" unicode="]" horiz-adv-x="330" 
d="M146 -134v794h-114v96h224v-986h-224v96h114z" />
    <glyph glyph-name="asciicircum" unicode="^" horiz-adv-x="537" 
d="M10 350l206 406h105l206 -406h-125l-133 274l-135 -274h-124z" />
    <glyph glyph-name="underscore" unicode="_" horiz-adv-x="500" 
d="M42 -230v114h416v-114h-416z" />
    <glyph glyph-name="grave" unicode="`" horiz-adv-x="272" 
d="M0 675l81 79l171 -174l-77 -73z" />
    <glyph glyph-name="a" unicode="a" horiz-adv-x="536" 
d="M246 88q32 0 59.5 14t38.5 28l12 13v49q-43 24 -108 24q-34 0 -61 -16t-27 -51q0 -61 86 -61zM260 486q101 0 158.5 -47.5t57.5 -129.5v-309h-111v60q-6 -8 -17 -20t-51 -32t-88 -20q-70 0 -120.5 43t-50.5 116q0 68 54 112.5t132 44.5q39 0 72 -8.5t46 -17.5l14 -8v27
q0 42 -31.5 62t-70.5 20q-31 0 -66.5 -8.5t-55.5 -17.5l-20 -9l-39 99q88 43 187 43z" />
    <glyph glyph-name="b" unicode="b" horiz-adv-x="587" 
d="M74 0v756h120v-332q5 7 15 17.5t44.5 27.5t74.5 17q94 0 162.5 -71t68.5 -178t-68.5 -178t-162.5 -71q-29 0 -54 7.5t-40.5 18.5t-27 22t-16.5 18l-5 8v-62h-111zM194 308v-142q4 -7 11.5 -18t37 -29.5t64.5 -18.5q60 0 95 38.5t35 98.5t-35 98.5t-95 38.5q-22 0 -42 -7
t-32.5 -16.5t-21.5 -19t-13 -16.5z" />
    <glyph glyph-name="b" unicode="&#xe003;" horiz-adv-x="587" 
d="M74 0v756h120v-332q5 7 15 17.5t44.5 27.5t74.5 17q94 0 162.5 -71t68.5 -178t-68.5 -178t-162.5 -71q-29 0 -54 7.5t-40.5 18.5t-27 22t-16.5 18l-5 8v-62h-111zM194 308v-142q4 -7 11.5 -18t37 -29.5t64.5 -18.5q60 0 95 38.5t35 98.5t-35 98.5t-95 38.5q-22 0 -42 -7
t-32.5 -16.5t-21.5 -19t-13 -16.5z" />
    <glyph glyph-name="c" unicode="c" horiz-adv-x="497" 
d="M283 100q23 0 43 6t33 14.5t23 17t14 14.5l4 6l79 -80q-3 -4 -8 -10t-24 -21.5t-40 -27.5t-54.5 -21.5t-69.5 -9.5q-107 0 -181 72.5t-74 176.5q0 105 74 177t181 72q56 0 104.5 -22t68.5 -44l21 -22l-83 -74q-4 6 -12.5 14t-37.5 22t-61 14q-59 0 -96 -40t-37 -97
t37 -97t96 -40z" />
    <glyph glyph-name="d" unicode="d" horiz-adv-x="587" 
d="M513 756v-756h-111v62q-2 -3 -5 -8t-16 -18t-28 -22.5t-40 -17.5t-54 -8q-94 0 -162.5 71t-68.5 178t68.5 178t162.5 71q40 0 73.5 -15.5t47.5 -30.5l13 -16v332h120zM393 166v142q-4 7 -11.5 18t-37 29.5t-64.5 18.5q-60 0 -95 -38.5t-35 -98.5t35 -98.5t95 -38.5
q22 0 42 7t32.5 16.5t21.5 19t13 16.5z" />
    <glyph glyph-name="e" unicode="e" horiz-adv-x="533" 
d="M266 486q100 0 169.5 -70t69.5 -177q0 -27 -1 -45h-354q8 -36 44.5 -66t88.5 -30q37 0 69.5 12t46.5 24l14 12l60 -90q-8 -8 -24 -19t-65.5 -30t-100.5 -19q-108 0 -181.5 72t-73.5 177t68 177t170 72zM150 281h235q-2 36 -33.5 66t-85.5 30q-53 0 -82.5 -29.5
t-33.5 -66.5z" />
    <glyph glyph-name="f" unicode="f" horiz-adv-x="371" 
d="M16 366v108h94v116q0 91 51.5 134.5t118.5 43.5q29 0 55.5 -6t38.5 -12l11 -7l-45 -101q-18 14 -48 14q-23 0 -42.5 -16.5t-19.5 -55.5v-110h116v-108h-116v-366h-120v366h-94z" />
    <glyph glyph-name="g" unicode="g" horiz-adv-x="573" 
d="M393 49q-49 -61 -134 -61q-94 0 -162.5 71t-68.5 178t68.5 178t162.5 71q44 0 79.5 -18.5t49.5 -37.5l14 -18v62h111v-478q0 -117 -73.5 -177.5t-181.5 -60.5q-60 0 -116.5 22.5t-82.5 45.5l-26 22l68 92q7 -8 20.5 -19.5t55 -31t81.5 -19.5q67 0 101 33t34 89v57z
M393 166v142q-4 7 -11.5 18t-37 29.5t-64.5 18.5q-60 0 -95 -38.5t-35 -98.5t35 -98.5t95 -38.5q35 0 63 16.5t39 33.5z" />
    <glyph glyph-name="h" unicode="h" horiz-adv-x="562" 
d="M328 486q72 0 123 -48.5t51 -130.5v-307h-120v277q0 49 -26 73t-68 24q-17 0 -33 -6.5t-27 -15.5t-19 -18t-11 -16l-4 -6v-312h-120v756h120v-339l5 7.5t15.5 16.5t26.5 21t37.5 16.5t49.5 7.5z" />
    <glyph glyph-name="i" unicode="i" horiz-adv-x="278" 
d="M79 0v474h120v-474h-120zM60 627q0 33 23 56t56 23t56 -23t23 -56t-23 -56t-56 -23t-56 23t-23 56z" />
    <glyph glyph-name="j" unicode="j" horiz-adv-x="332" 
d="M-35 -211l43 101q31 -20 57 -20q13 0 22.5 2.5t21.5 11.5t18.5 30.5t6.5 53.5v506h120v-517q0 -55 -17 -96t-44.5 -62t-56.5 -31t-58 -10t-57.5 8t-42.5 16zM114 627q0 33 23 56t56 23t56 -23t23 -56t-23 -56t-56 -23t-56 23t-23 56z" />
    <glyph glyph-name="k" unicode="k" horiz-adv-x="535" 
d="M194 756v-469l170 187h155l-208 -224l222 -250h-158l-181 207v-207h-120v756h120z" />
    <glyph glyph-name="l" unicode="l" horiz-adv-x="268" 
d="M74 0v756h120v-756h-120z" />
    <glyph glyph-name="m" unicode="m" horiz-adv-x="836" 
d="M610 486q74 0 120 -48.5t46 -132.5v-305h-120v274q0 100 -85 100q-28 0 -51 -15t-32 -31l-10 -15v-313h-120v274q0 100 -85 100q-18 0 -34 -6.5t-26 -15t-18 -17.5t-11 -15l-4 -7v-313h-120v474h112v-69q2 3 5.5 8.5t16 19.5t27.5 24.5t39.5 19.5t51.5 9q32 0 59 -8.5
t42.5 -21t26.5 -24.5t15 -20l4 -9q2 3 5 9t16 20t29 25t43 20t58 9z" />
    <glyph glyph-name="n" unicode="n" horiz-adv-x="548" 
d="M314 486q72 0 123 -48.5t51 -130.5v-307h-120v277q0 49 -26 73t-68 24q-17 0 -33 -6.5t-27 -15t-19 -17.5t-11 -15l-4 -7v-313h-120v474h112v-69q2 3 5.5 8.5t16 19.5t27.5 24.5t40 19.5t53 9z" />
    <glyph glyph-name="o" unicode="o" horiz-adv-x="562" 
d="M281 486q106 0 179.5 -72t73.5 -177q0 -104 -73.5 -176.5t-179.5 -72.5t-179.5 72.5t-73.5 176.5q0 105 73.5 177t179.5 72zM281 100q59 0 95 40t36 97t-36 97t-95 40t-95 -40t-36 -97t36 -97t95 -40z" />
    <glyph glyph-name="p" unicode="p" horiz-adv-x="573" 
d="M60 474h111v-62q2 3 5.5 8t16.5 18t28 22.5t40.5 17.5t52.5 8q94 0 162.5 -71t68.5 -178t-68.5 -178t-162.5 -71q-85 0 -134 61v-279h-120v704zM180 308v-142q4 -7 11.5 -18t37 -29.5t64.5 -18.5q60 0 95 38.5t35 98.5t-35 98.5t-95 38.5q-22 0 -42 -7t-32.5 -16.5
t-21.5 -19t-13 -16.5z" />
    <glyph glyph-name="q" unicode="q" horiz-adv-x="573" 
d="M402 474h111v-704h-120v279q-49 -61 -134 -61q-94 0 -162.5 71t-68.5 178t68.5 178t162.5 71q44 0 79.5 -18.5t49.5 -37.5l14 -18v62zM393 166v142q-4 7 -11.5 18t-37 29.5t-64.5 18.5q-60 0 -95 -38.5t-35 -98.5t35 -98.5t95 -38.5q22 0 42 7t32.5 16.5t21.5 19t13 16.5
z" />
    <glyph glyph-name="r" unicode="r" horiz-adv-x="387" 
d="M303 486q19 0 39.5 -4t31.5 -8l11 -3l-42 -108q-22 11 -57 11q-32 0 -58.5 -16t-37.5 -32l-10 -16v-310h-120v474h114v-69q2 3 5 8.5t15 19.5t25.5 24.5t36 19.5t47.5 9z" />
    <glyph glyph-name="s" unicode="s" horiz-adv-x="483" 
d="M30 74l67 87q7 -8 19.5 -19t50 -30t73.5 -19q39 0 64.5 11t25.5 32q0 22 -18 31t-76 21q-176 37 -176 150q0 59 55.5 103.5t148.5 44.5q48 0 92.5 -14.5t65.5 -29.5l20 -14l-60 -88q-54 41 -118 41q-36 0 -61 -12t-25 -33q0 -20 22 -29.5t90 -23.5q80 -17 120.5 -49
t40.5 -100q0 -62 -58.5 -104t-148.5 -42q-39 0 -75.5 9t-60.5 21.5t-42.5 25t-27.5 21.5z" />
    <glyph glyph-name="s" unicode="&#xe004;" horiz-adv-x="483" 
d="M30 74l67 87q7 -8 19.5 -19t50 -30t73.5 -19q39 0 64.5 11t25.5 32q0 22 -18 31t-76 21q-176 37 -176 150q0 59 55.5 103.5t148.5 44.5q48 0 92.5 -14.5t65.5 -29.5l20 -14l-60 -88q-54 41 -118 41q-36 0 -61 -12t-25 -33q0 -20 22 -29.5t90 -23.5q80 -17 120.5 -49
t40.5 -100q0 -62 -58.5 -104t-148.5 -42q-39 0 -75.5 9t-60.5 21.5t-42.5 25t-27.5 21.5z" />
    <glyph glyph-name="t" unicode="t" horiz-adv-x="416" 
d="M22 366v108h93v141h120v-141h143v-108h-143v-191q0 -75 62 -75q12 0 24.5 4t18.5 8l7 5l44 -98q-45 -31 -114 -31q-70 0 -116 46.5t-46 121.5v210h-93z" />
    <glyph glyph-name="u" unicode="u" horiz-adv-x="548" 
d="M234 -12q-72 0 -123 48.5t-51 130.5v307h120v-274q0 -100 94 -100q28 0 51.5 14.5t32.5 29.5l10 14v316h120v-474h-112v69q-2 -3 -5.5 -8.5t-16.5 -19.5t-28 -24.5t-40 -19.5t-52 -9z" />
    <glyph glyph-name="v" unicode="v" horiz-adv-x="506" 
d="M2 474h133l120 -258l120 258h129l-251 -498z" />
    <glyph glyph-name="w" unicode="w" horiz-adv-x="768" 
d="M4 474h134l98 -243l103 243h101l100 -243l102 243h122l-229 -498l-152 338l-150 -338z" />
    <glyph glyph-name="x" unicode="x" horiz-adv-x="525" 
d="M192 245l-163 229h141l97 -146l95 146h137l-165 -229l175 -245h-143l-107 162l-107 -162h-136z" />
    <glyph glyph-name="y" unicode="y" horiz-adv-x="557" 
d="M20 -192l56 93q32 -31 63 -31t47.5 13.5t33.5 56.5l19 49l-231 485h133l160 -347l125 347h129l-230 -580q-54 -136 -178 -136q-32 0 -64 12.5t-47 25.5z" />
    <glyph glyph-name="y" unicode="&#xe006;" horiz-adv-x="557" 
d="M20 -192l56 93q32 -31 63 -31t47.5 13.5t33.5 56.5l19 49l-231 485h133l160 -347l125 347h129l-230 -580q-54 -136 -178 -136q-32 0 -64 12.5t-47 25.5z" />
    <glyph glyph-name="z" unicode="z" horiz-adv-x="495" 
d="M47 474h422l-235 -362h224v-112h-428l235 362h-218v112z" />
    <glyph glyph-name="braceleft" unicode="{" horiz-adv-x="350" 
d="M314 756v-108q-35 0 -51.5 -14t-16.5 -60v-186q0 -72 -27 -99t-72 -29v-4q45 -2 72 -29t27 -99v-176q0 -46 16.5 -60t51.5 -14v-108h-54q-59 0 -96.5 37.5t-37.5 97.5v208q0 61 -27 81t-73 20v88q46 0 73 20t27 81v218q0 60 37.5 97.5t96.5 37.5h54z" />
    <glyph glyph-name="bar" unicode="|" horiz-adv-x="260" 
d="M72 -230v970h116v-970h-116z" />
    <glyph glyph-name="braceright" unicode="}" horiz-adv-x="350" 
d="M36 648v108h54q59 0 96.5 -37.5t37.5 -97.5v-218q0 -61 27 -81t73 -20v-88q-46 0 -73 -20t-27 -81v-208q0 -60 -37.5 -97.5t-96.5 -37.5h-54v108q35 0 51.5 14t16.5 60v176q0 72 27 99t72 29v4q-45 2 -72 29t-27 99v186q0 46 -16.5 60t-51.5 14z" />
    <glyph glyph-name="asciitilde" unicode="~" horiz-adv-x="489" 
d="M106 258l-86 53l5 12.5t16 27t28.5 34.5t42.5 27t58 12q32 0 80.5 -23.5t66.5 -23.5q24 0 40.5 14t20.5 28l5 14l86 -54l-5 -12.5t-15.5 -26.5t-28 -34t-42.5 -27t-58 -12q-34 0 -83 23.5t-64 23.5q-24 0 -41 -14t-22 -28z" />
    <glyph glyph-name="exclamdown" unicode="&#xa1;" horiz-adv-x="306" 
d="M210 274l5 -500h-124l5 500h114zM74 407q0 33 23 56t56 23t56 -23t23 -56t-23 -56t-56 -23t-56 23t-23 56z" />
    <glyph glyph-name="cent" unicode="&#xa2;" 
d="M287 -94v85q-94 13 -155.5 82t-61.5 164t61.5 164t155.5 82v87h63v-85q49 -5 91 -26.5t60 -40.5l18 -20l-83 -74q-31 38 -86 48v-270q28 4 51 18t32 26l9 12l79 -80q-2 -3 -7 -8.5t-21.5 -19.5t-34.5 -25.5t-47.5 -22t-60.5 -13.5v-83h-63zM192 237q0 -47 25.5 -83.5
t69.5 -48.5v264q-44 -13 -69.5 -49.5t-25.5 -82.5z" />
    <glyph glyph-name="sterling" unicode="&#xa3;" 
d="M194 500q0 -37 61 -133h185v-84h-143q10 -29 10 -59q0 -19 -4.5 -38t-8.5 -29l-5 -10q17 -6 54.5 -26.5t58.5 -20.5q26 0 43.5 15.5t22.5 30.5l4 16l93 -52q-2 -5 -5.5 -13t-17 -29t-30.5 -37.5t-47 -29.5t-64 -13q-51 0 -100.5 28t-78.5 28q-27 0 -48 -16t-29 -32
l-8 -16l-92 64q5 10 14.5 25.5t40 45t62.5 37.5q9 10 17 32t8 43q0 20 -18 56h-124v84h78q-49 88 -49 141q0 79 59 141.5t173 62.5q40 0 76 -11.5t59 -28t40 -33t25 -27.5l7 -12l-87 -70q-1 3 -4 7.5t-14 16.5t-23.5 21.5t-33.5 17t-45 7.5q-51 0 -81.5 -28.5t-30.5 -71.5z
" />
    <glyph glyph-name="currency" unicode="&#xa4;" 
d="M58 323q0 69 37 126l-71 71l70 70l70 -71q59 38 127 38t125 -38l71 71l70 -70l-71 -71q38 -57 38 -126q0 -68 -38 -127l71 -70l-70 -70l-71 71q-57 -37 -125 -37q-71 0 -126 37l-71 -71l-70 70l71 71q-37 56 -37 126zM170 322q0 -50 35.5 -85.5t85.5 -35.5q51 0 86 35
t35 86q0 48 -36 85t-85 37q-50 0 -85.5 -36t-35.5 -86z" />
    <glyph glyph-name="yen" unicode="&#xa5;" 
d="M25 385v84h96l-130 231h132l171 -313l171 313h124l-130 -231h96v-84h-144l-39 -70h183v-84h-205v-231h-120v231h-205v84h183l-40 70h-143z" />
    <glyph glyph-name="brokenbar" unicode="&#xa6;" horiz-adv-x="260" 
d="M72 350v390h116v-390h-116zM72 -230v390h116v-390h-116z" />
    <glyph glyph-name="section" unicode="&#xa7;" horiz-adv-x="508" 
d="M448 264q0 -56 -32 -95t-72 -57q83 -58 83 -151q0 -64 -52.5 -109.5t-134.5 -45.5q-30 0 -59 8.5t-48.5 20t-35 23.5t-22.5 20l-7 9l76 79q4 -6 11.5 -14t32.5 -22t52 -14q29 0 48 17.5t19 41.5q0 26 -21 43.5t-84 53.5q-39 22 -57.5 34.5t-45 35.5t-38 50.5t-11.5 61.5
q0 55 32.5 94.5t71.5 56.5q-83 58 -83 142q0 68 52.5 116.5t134.5 48.5q49 0 91.5 -20.5t60.5 -41.5l19 -20l-79 -74q-4 5 -11 12.5t-30.5 20.5t-50.5 13q-29 0 -48 -17.5t-19 -41.5q0 -26 21 -43.5t84 -53.5q39 -22 57.5 -34.5t45 -35.5t38 -50.5t11.5 -61.5zM249 172l5 -3
q28 4 51 25.5t23 53.5t-14 51t-65 47l-5 2q-28 -3 -51 -24.5t-23 -53.5t14 -51t65 -47z" />
    <glyph glyph-name="dieresis" unicode="&#xa8;" horiz-adv-x="392" 
d="M14 621q0 33 23 56t56 23t56 -23t23 -56t-23 -56t-56 -23t-56 23t-23 56zM220 621q0 33 23 56t56 23t56 -23t23 -56t-23 -56t-56 -23t-56 23t-23 56z" />
    <glyph glyph-name="copyright" unicode="&#xa9;" horiz-adv-x="819" 
d="M48 350q0 150 106 256t256 106t255.5 -106t105.5 -256t-105.5 -256t-255.5 -106t-256 106t-106 256zM134 350q0 -113 81.5 -194.5t194.5 -81.5t194 81.5t81 194.5t-81 194.5t-194 81.5t-194.5 -81.5t-81.5 -194.5zM418 241q28 0 51.5 11.5t32.5 23.5l9 11l62 -63
q-6 -8 -18 -20t-52 -31.5t-85 -19.5q-84 0 -143 57.5t-59 139.5t59 139.5t143 57.5q45 0 83.5 -17.5t54.5 -35.5l16 -17l-66 -59q-3 4 -10 11t-30 18t-48 11q-47 0 -76 -31.5t-29 -76.5q0 -46 29 -77.5t76 -31.5z" />
    <glyph glyph-name="ordfeminine" unicode="&#xaa;" horiz-adv-x="325" 
d="M147 464q20 0 37.5 9t25.5 18l7 9v22q-29 16 -69 16q-52 0 -52 -37q0 -19 15.5 -28t35.5 -9zM159 712q63 0 98 -31t35 -80v-195h-70v39q-3 -5 -10 -12.5t-32.5 -20.5t-55.5 -13q-41 0 -73.5 27t-32.5 72q0 44 32.5 71.5t81.5 27.5q24 0 45.5 -6.5t30.5 -12.5l9 -7v19
q0 24 -20 36.5t-46 12.5q-19 0 -40.5 -5.5t-33.5 -10.5l-12 -5l-25 66q49 28 119 28z" />
    <glyph glyph-name="guillemotleft" unicode="&#xab;" horiz-adv-x="529" 
d="M6 245l183 236l82 -63l-138 -173l138 -173l-82 -63zM221 245l183 236l82 -63l-138 -173l138 -173l-82 -63z" />
    <glyph glyph-name="logicalnot" unicode="&#xac;" horiz-adv-x="674" 
d="M18 394v114h600v-316h-118v202h-482z" />
    <glyph glyph-name="softhyphen" unicode="&#xad;" horiz-adv-x="333" 
d="M33 190v114h267v-114h-267z" />
    <glyph glyph-name="registered" unicode="&#xae;" horiz-adv-x="425" 
d="M137 417v190h98q28 0 45.5 -18t17.5 -44q0 -45 -43 -58l50 -70h-60l-40 61h-14v-61h-54zM211 524q35 0 35 21t-35 21h-20v-42h20zM5 510q0 87 61 148.5t147 61.5q87 0 148.5 -61.5t61.5 -148.5q0 -86 -61.5 -147t-148.5 -61q-86 0 -147 61t-61 147zM70 510q0 -59 42 -101
t101 -42t101.5 42t42.5 101t-42.5 101.5t-101.5 42.5t-101 -42.5t-42 -101.5z" />
    <glyph glyph-name="macron" unicode="&#xaf;" horiz-adv-x="334" 
d="M6 572v108h322v-108h-322z" />
    <glyph glyph-name="degree" unicode="&#xb0;" horiz-adv-x="357" 
d="M22 555q0 65 45.5 111t110.5 46t111 -46t46 -111t-46 -110.5t-111 -45.5t-110.5 45.5t-45.5 110.5zM108 555q0 -30 21 -50.5t50 -20.5t50 20.5t21 50.5t-21 50.5t-50 20.5t-50 -20.5t-21 -50.5z" />
    <glyph glyph-name="plusminus" unicode="&#xb1;" horiz-adv-x="520" 
d="M38 0v102h444v-102h-444zM38 269v102h167v130h110v-130h167v-102h-167v-123h-110v123h-167z" />
    <glyph glyph-name="twosuperior" unicode="&#xb2;" horiz-adv-x="362" 
d="M32 394l152 184q1 2 13 16.5t17 22t11 21.5t6 26q0 25 -17.5 41t-45.5 16q-24 0 -40.5 -14.5t-21.5 -29.5l-5 -15l-79 27q1 5 4 13t14.5 28t26 35.5t42 28t59.5 12.5q74 0 114 -42t40 -98q0 -48 -32 -90l-75 -100h111v-82h-294z" />
    <glyph glyph-name="threesuperior" unicode="&#xb3;" horiz-adv-x="368" 
d="M235 680q0 20 -15.5 32.5t-43.5 12.5q-14 0 -26.5 -4.5t-20 -10.5t-12.5 -12.5t-7 -11.5l-3 -4l-70 38q2 3 5 9t15 21t26.5 26t39.5 20.5t53 9.5q64 0 106.5 -33t42.5 -93q0 -24 -11.5 -42.5t-23.5 -25.5l-12 -6q2 -1 5.5 -2.5t13 -9t16.5 -16.5t13 -26t6 -37
q0 -60 -45 -93.5t-109 -33.5q-32 0 -59 10t-43 24t-27 28t-15 24l-4 10l74 41q2 -6 6 -15.5t23 -25t45 -15.5q31 0 47.5 13.5t16.5 32.5q0 49 -67 49h-22v70h15q27 0 47 11t20 35z" />
    <glyph glyph-name="acute" unicode="&#xb4;" horiz-adv-x="272" 
d="M191 753l81 -79l-175 -168l-77 73z" />
    <glyph glyph-name="mu" unicode="&#xb5;" horiz-adv-x="548" 
d="M234 -12q-27 0 -54 8v-226h-120v704h120v-274q0 -100 94 -100q28 0 51.5 14.5t32.5 29.5l10 14v316h120v-474h-112v69q-2 -3 -5.5 -8.5t-16.5 -19.5t-28 -24.5t-40 -19.5t-52 -9z" />
    <glyph glyph-name="paragraph" unicode="&#xb6;" horiz-adv-x="672" 
d="M386 598v-786h-112v414q-98 0 -168 69t-70 167t70 168t168 70h324v-888h-112v786h-100z" />
    <glyph glyph-name="periodcentered" unicode="&#xb7;" horiz-adv-x="262" 
d="M52 350q0 33 23 56t56 23t56 -23t23 -56t-23 -56t-56 -23t-56 23t-23 56z" />
    <glyph glyph-name="cedilla" unicode="&#xb8;" horiz-adv-x="315" 
d="M241 -57l-68 -214l-111 32l72 194z" />
    <glyph glyph-name="onesuperior" unicode="&#xb9;" horiz-adv-x="323" 
d="M8 669l158 131h85v-406h-93v289l-97 -80z" />
    <glyph glyph-name="ordmasculine" unicode="&#xba;" horiz-adv-x="357" 
d="M22 555q0 65 46 111t111 46t111 -46t46 -111t-46 -111t-111 -46t-111 46t-46 111zM108 555q0 -29 21 -50t50 -21t50 21t21 50t-21 50t-50 21t-50 -21t-21 -50z" />
    <glyph glyph-name="guillemotright" unicode="&#xbb;" horiz-adv-x="529" 
d="M340 481l183 -236l-183 -236l-82 63l138 173l-138 173zM125 481l183 -236l-183 -236l-82 63l138 173l-138 173z" />
    <glyph glyph-name="onequarter" unicode="&#xbc;" horiz-adv-x="830" 
d="M180 7l471 724l57 -39l-471 -724zM449 78l208 328h98v-250h50v-78h-50v-78h-86v78h-220zM585 156h84v134zM26 569l158 131h85v-406h-93v289l-97 -80z" />
    <glyph glyph-name="onehalf" unicode="&#xbd;" horiz-adv-x="830" 
d="M479 0l152 184q1 2 13 16.5t17 22t11 21.5t6 26q0 25 -17.5 41t-45.5 16q-24 0 -40.5 -14.5t-21.5 -29.5l-5 -15l-79 27q1 5 4 13t14.5 28t26 35.5t42 28t59.5 12.5q74 0 114 -42t40 -98q0 -48 -32 -90l-75 -100h111v-82h-294zM131 7l471 724l57 -39l-471 -724zM16 569
l158 131h85v-406h-93v289l-97 -80z" />
    <glyph glyph-name="threequarters" unicode="&#xbe;" horiz-adv-x="830" 
d="M190 7l471 724l57 -39l-471 -724zM245 580q0 20 -15.5 32.5t-43.5 12.5q-14 0 -26.5 -4.5t-20 -10.5t-12.5 -12.5t-7 -11.5l-3 -4l-70 38q2 3 5 9t15 21t26.5 26t39.5 20.5t53 9.5q64 0 106.5 -33t42.5 -93q0 -24 -11.5 -42.5t-23.5 -25.5l-12 -6q2 -1 5.5 -2.5t13 -9
t16.5 -16.5t13 -26t6 -37q0 -60 -45 -93.5t-109 -33.5q-32 0 -59 10t-43 24t-27 28t-15 24l-4 10l74 41q2 -6 6 -15.5t23 -25t45 -15.5q31 0 47.5 13.5t16.5 32.5q0 49 -67 49h-22v70h15q27 0 47 11t20 35zM449 78l208 328h98v-250h50v-78h-50v-78h-86v78h-220zM585 156h84
v134z" />
    <glyph glyph-name="questiondown" unicode="&#xbf;" horiz-adv-x="489" 
d="M160 -38q0 -35 27.5 -60.5t65.5 -25.5t67.5 24t39.5 48l11 24l102 -47q-2 -7 -6 -18t-22 -39t-40.5 -49.5t-63 -39t-88.5 -17.5q-90 0 -151.5 58t-61.5 142q0 42 16 76.5t35.5 55t59.5 55.5q27 24 32 33t5 36v51h119v-74q0 -11 -0.5 -19.5t-3.5 -17.5t-4.5 -14.5
t-8 -13.5t-9 -12t-12.5 -13t-14 -12.5t-18 -15.5t-20 -17q-32 -28 -44.5 -47t-12.5 -51zM326 407q0 -33 -23 -56t-56 -23t-56 23t-23 56t23 56t56 23t56 -23t23 -56z" />
    <glyph glyph-name="Agrave" unicode="&#xc0;" horiz-adv-x="678" 
d="M6 0l272 700h122l272 -700h-121l-64 166h-296l-64 -166h-121zM339 549l-105 -273h210zM191 913l81 79l171 -174l-77 -73z" />
    <glyph glyph-name="Aacute" unicode="&#xc1;" horiz-adv-x="678" 
d="M6 0l272 700h122l272 -700h-121l-64 166h-296l-64 -166h-121zM339 549l-105 -273h210zM409 991l81 -79l-175 -168l-77 73z" />
    <glyph glyph-name="Acircumflex" unicode="&#xc2;" horiz-adv-x="678" 
d="M6 0l272 700h122l272 -700h-121l-64 166h-296l-64 -166h-121zM339 549l-105 -273h210zM153 824l186 134l186 -134l-66 -82l-120 91l-122 -91z" />
    <glyph glyph-name="Atilde" unicode="&#xc3;" horiz-adv-x="678" 
d="M6 0l272 700h122l272 -700h-121l-64 166h-296l-64 -166h-121zM339 549l-105 -273h210zM220 775l-84 61q1 4 4 11t14.5 25t25.5 32t38 25t52 11q32 0 76.5 -29t60.5 -29q19 0 32.5 16t17.5 32l4 17l82 -65q-1 -4 -4 -11.5t-14 -25.5t-24.5 -32t-37 -25.5t-50.5 -11.5
q-31 0 -76 28.5t-61 28.5q-19 0 -33 -14.5t-19 -28.5z" />
    <glyph glyph-name="Adieresis" unicode="&#xc4;" horiz-adv-x="678" 
d="M6 0l272 700h122l272 -700h-121l-64 166h-296l-64 -166h-121zM339 549l-105 -273h210zM157 859q0 33 23 56t56 23t56 -23t23 -56t-23 -56t-56 -23t-56 23t-23 56zM363 859q0 33 23 56t56 23t56 -23t23 -56t-23 -56t-56 -23t-56 23t-23 56z" />
    <glyph glyph-name="Aring" unicode="&#xc5;" horiz-adv-x="678" 
d="M6 0l272 700h122l272 -700h-121l-64 166h-296l-64 -166h-121zM339 549l-105 -273h210zM217 863q0 49 36 84.5t86 35.5t86 -35.5t36 -84.5t-36 -84.5t-86 -35.5t-86 35.5t-36 84.5zM285 863q0 -23 15.5 -38.5t38.5 -15.5t38.5 15.5t15.5 38.5t-15.5 38.5t-38.5 15.5
t-38.5 -15.5t-15.5 -38.5z" />
    <glyph glyph-name="AE" unicode="&#xc6;" horiz-adv-x="915" 
d="M493 605l-206 -348h206v348zM613 588v-172h230v-114h-230v-190h260v-112h-380v143h-272l-85 -143h-130l413 700h448v-112h-254z" />
    <glyph glyph-name="Ccedilla" unicode="&#xc7;" horiz-adv-x="676" 
d="M409 -62l-68 -214l-111 32l72 194zM389 100q34 0 66.5 9t53.5 21.5t37.5 25t23.5 21.5l8 9l80 -79q-4 -5 -11 -13t-32.5 -28.5t-54.5 -36t-75 -28.5t-96 -13q-152 0 -253.5 103.5t-101.5 258.5t101.5 258.5t253.5 103.5q47 0 91 -11.5t73 -27.5t51.5 -32t33.5 -27l10 -12
l-81 -79q-3 3 -7.5 8.5t-22 18.5t-36.5 23t-49.5 18.5t-62.5 8.5q-101 0 -167 -73t-66 -177t66 -177t167 -73z" />
    <glyph glyph-name="Egrave" unicode="&#xc8;" horiz-adv-x="546" 
d="M194 586v-170h280v-114h-280v-188h310v-114h-430v700h424v-114h-304zM147 913l81 79l171 -174l-77 -73z" />
    <glyph glyph-name="Eacute" unicode="&#xc9;" horiz-adv-x="546" 
d="M194 586v-170h280v-114h-280v-188h310v-114h-430v700h424v-114h-304zM361 991l81 -79l-175 -168l-77 73z" />
    <glyph glyph-name="Ecircumflex" unicode="&#xca;" horiz-adv-x="546" 
d="M194 586v-170h280v-114h-280v-188h310v-114h-430v700h424v-114h-304zM99 824l186 134l186 -134l-66 -82l-120 91l-122 -91z" />
    <glyph glyph-name="Edieresis" unicode="&#xcb;" horiz-adv-x="546" 
d="M194 586v-170h280v-114h-280v-188h310v-114h-430v700h424v-114h-304zM109 859q0 33 23 56t56 23t56 -23t23 -56t-23 -56t-56 -23t-56 23t-23 56zM315 859q0 33 23 56t56 23t56 -23t23 -56t-23 -56t-56 -23t-56 23t-23 56z" />
    <glyph glyph-name="Igrave" unicode="&#xcc;" horiz-adv-x="296" 
d="M88 0v700h120v-700h-120zM4 913l81 79l171 -174l-77 -73z" />
    <glyph glyph-name="Iacute" unicode="&#xcd;" horiz-adv-x="296" 
d="M85 0v700h120v-700h-120zM211 991l81 -79l-175 -168l-77 73z" />
    <glyph glyph-name="Icircumflex" unicode="&#xce;" horiz-adv-x="296" 
d="M88 0v700h120v-700h-120zM-36 834l186 134l186 -134l-66 -82l-120 91l-122 -91z" />
    <glyph glyph-name="Idieresis" unicode="&#xcf;" horiz-adv-x="296" 
d="M74 0v700h120v-700h-120zM-48 859q0 33 23 56t56 23t56 -23t23 -56t-23 -56t-56 -23t-56 23t-23 56zM158 859q0 33 23 56t56 23t56 -23t23 -56t-23 -56t-56 -23t-56 23t-23 56z" />
    <glyph glyph-name="Eth" unicode="&#xd0;" horiz-adv-x="708" 
d="M328 700q152 0 249 -99t97 -251t-97 -251t-249 -99h-226v305h-90v104h90v291h226zM330 114q99 0 160.5 69t61.5 167q0 99 -61.5 167.5t-160.5 68.5h-108v-177h202v-104h-202v-191h108z" />
    <glyph glyph-name="Ntilde" unicode="&#xd1;" horiz-adv-x="726" 
d="M74 700h108l350 -482v482h120v-700h-108l-350 481v-481h-120v700zM247 775l-84 61q1 4 4 11t14.5 25t25.5 32t38 25t52 11q32 0 76.5 -29t60.5 -29q19 0 32.5 16t17.5 32l4 17l82 -65q-1 -4 -4 -11.5t-14 -25.5t-24.5 -32t-37 -25.5t-50.5 -11.5q-32 0 -76 28.5t-61 28.5
q-19 0 -33 -14.5t-18 -28.5z" />
    <glyph glyph-name="Ograve" unicode="&#xd2;" horiz-adv-x="776" 
d="M388 712q153 0 253.5 -103t100.5 -259t-100.5 -259t-253.5 -103t-253.5 103t-100.5 259t100.5 259t253.5 103zM388 102q103 0 167.5 72t64.5 176t-64.5 176t-167.5 72t-167.5 -72t-64.5 -176t64.5 -176t167.5 -72zM249 913l81 79l171 -174l-77 -73z" />
    <glyph glyph-name="Oacute" unicode="&#xd3;" horiz-adv-x="776" 
d="M441 991l81 -79l-175 -168l-77 73zM388 712q153 0 253.5 -103t100.5 -259t-100.5 -259t-253.5 -103t-253.5 103t-100.5 259t100.5 259t253.5 103zM388 102q103 0 167.5 72t64.5 176t-64.5 176t-167.5 72t-167.5 -72t-64.5 -176t64.5 -176t167.5 -72z" />
    <glyph glyph-name="Ocircumflex" unicode="&#xd4;" horiz-adv-x="776" 
d="M388 712q153 0 253.5 -103t100.5 -259t-100.5 -259t-253.5 -103t-253.5 103t-100.5 259t100.5 259t253.5 103zM388 102q103 0 167.5 72t64.5 176t-64.5 176t-167.5 72t-167.5 -72t-64.5 -176t64.5 -176t167.5 -72zM204 824l186 134l186 -134l-66 -82l-120 91l-122 -91z
" />
    <glyph glyph-name="Otilde" unicode="&#xd5;" horiz-adv-x="776" 
d="M388 712q153 0 253.5 -103t100.5 -259t-100.5 -259t-253.5 -103t-253.5 103t-100.5 259t100.5 259t253.5 103zM388 102q103 0 167.5 72t64.5 176t-64.5 176t-167.5 72t-167.5 -72t-64.5 -176t64.5 -176t167.5 -72zM270 775l-84 61q1 4 4 11t14.5 25t25.5 32t38 25t52 11
q32 0 76.5 -29t60.5 -29q19 0 32.5 16t17.5 32l4 17l82 -65q-1 -4 -4 -11.5t-14 -25.5t-24.5 -32t-37 -25.5t-50.5 -11.5q-31 0 -76 28.5t-61 28.5q-19 0 -33 -14.5t-19 -28.5z" />
    <glyph glyph-name="Odieresis" unicode="&#xd6;" horiz-adv-x="776" 
d="M388 712q153 0 253.5 -103t100.5 -259t-100.5 -259t-253.5 -103t-253.5 103t-100.5 259t100.5 259t253.5 103zM388 102q103 0 167.5 72t64.5 176t-64.5 176t-167.5 72t-167.5 -72t-64.5 -176t64.5 -176t167.5 -72zM206 859q0 33 23 56t56 23t56 -23t23 -56t-23 -56
t-56 -23t-56 23t-23 56zM412 859q0 33 23 56t56 23t56 -23t23 -56t-23 -56t-56 -23t-56 23t-23 56z" />
    <glyph glyph-name="multiply" unicode="&#xd7;" horiz-adv-x="520" 
d="M107 24l-78 78l153 153l-153 153l78 78l153 -153l153 153l78 -78l-153 -153l153 -153l-78 -78l-153 153z" />
    <glyph glyph-name="Oslash" unicode="&#xd8;" horiz-adv-x="784" 
d="M65 12l70 83q-97 102 -97 255q0 156 100.5 259t253.5 103q118 0 208 -65l70 82l49 -41l-70 -83q97 -103 97 -255q0 -156 -100.5 -259t-253.5 -103q-117 0 -209 65l-69 -82zM160 350q0 -94 53 -163l312 370q-57 41 -133 41q-103 0 -167.5 -72t-64.5 -176zM392 102
q103 0 167.5 72t64.5 176q0 93 -53 162l-312 -369q57 -41 133 -41z" />
    <glyph glyph-name="Ugrave" unicode="&#xd9;" horiz-adv-x="688" 
d="M495 269v431h120v-446q0 -117 -74 -191.5t-196 -74.5t-196 74.5t-74 191.5v446h120v-431q0 -77 38.5 -122t111.5 -45t111.5 45t38.5 122zM189 913l81 79l171 -174l-77 -73z" />
    <glyph glyph-name="Uacute" unicode="&#xda;" horiz-adv-x="688" 
d="M494 269v431h120v-446q0 -117 -74 -191.5t-196 -74.5t-196 74.5t-74 191.5v446h120v-431q0 -77 38.5 -122t111.5 -45t111.5 45t38.5 122zM423 991l81 -79l-175 -168l-77 73z" />
    <glyph glyph-name="Ucircumflex" unicode="&#xdb;" horiz-adv-x="688" 
d="M494 269v431h120v-446q0 -117 -74 -191.5t-196 -74.5t-196 74.5t-74 191.5v446h120v-431q0 -77 38.5 -122t111.5 -45t111.5 45t38.5 122zM158 824l186 134l186 -134l-66 -82l-120 91l-122 -91z" />
    <glyph glyph-name="Udieresis" unicode="&#xdc;" horiz-adv-x="688" 
d="M494 269v431h120v-446q0 -117 -74 -191.5t-196 -74.5t-196 74.5t-74 191.5v446h120v-431q0 -77 38.5 -122t111.5 -45t111.5 45t38.5 122zM162 859q0 33 23 56t56 23t56 -23t23 -56t-23 -56t-56 -23t-56 23t-23 56zM368 859q0 33 23 56t56 23t56 -23t23 -56t-23 -56
t-56 -23t-56 23t-23 56z" />
    <glyph glyph-name="Yacute" unicode="&#xdd;" horiz-adv-x="614" 
d="M367 276v-276h-120v276l-239 424h132l171 -313l171 313h124zM386 991l81 -79l-175 -168l-77 73z" />
    <glyph glyph-name="Thorn" unicode="&#xde;" horiz-adv-x="545" 
d="M74 0v700h120v-111h86q108 0 177.5 -54.5t69.5 -159.5t-69.5 -159.5t-177.5 -54.5h-86v-161h-120zM265 273q67 0 104.5 22.5t37.5 79.5t-37.5 79.5t-104.5 22.5h-71v-204h71z" />
    <glyph glyph-name="germandbls" unicode="&#xdf;" horiz-adv-x="601" 
d="M64 0v543q0 102 64.5 163.5t169.5 61.5q89 0 153.5 -55.5t64.5 -156.5q0 -29 -8.5 -54.5t-21 -40.5t-24.5 -26t-20 -15l-9 -4q5 -1 14 -3.5t32 -15t40 -31t31.5 -55.5t14.5 -85q0 -124 -76.5 -181t-205.5 -57h-20v112h15q86 0 125.5 34.5t39.5 91.5q0 126 -172 126v106
q40 0 66.5 11t37.5 28.5t15 31t4 28.5q0 35 -25.5 66t-72.5 31q-52 0 -82 -30t-30 -81v-543h-120z" />
    <glyph glyph-name="agrave" unicode="&#xe0;" horiz-adv-x="536" 
d="M246 88q32 0 59.5 14t38.5 28l12 13v49q-43 24 -108 24q-34 0 -61 -16t-27 -51q0 -61 86 -61zM260 486q101 0 158.5 -47.5t57.5 -129.5v-309h-111v60q-6 -8 -17 -20t-51 -32t-88 -20q-70 0 -120.5 43t-50.5 116q0 68 54 112.5t132 44.5q39 0 72 -8.5t46 -17.5l14 -8v27
q0 42 -31.5 62t-70.5 20q-31 0 -66.5 -8.5t-55.5 -17.5l-20 -9l-39 99q88 43 187 43zM133 704l81 79l171 -174l-77 -73z" />
    <glyph glyph-name="aacute" unicode="&#xe1;" horiz-adv-x="536" 
d="M344 783l81 -79l-175 -168l-77 73zM246 88q32 0 59.5 14t38.5 28l12 13v49q-43 24 -108 24q-34 0 -61 -16t-27 -51q0 -61 86 -61zM260 486q101 0 158.5 -47.5t57.5 -129.5v-309h-111v60q-6 -8 -17 -20t-51 -32t-88 -20q-70 0 -120.5 43t-50.5 116q0 68 54 112.5t132 44.5
q39 0 72 -8.5t46 -17.5l14 -8v27q0 42 -31.5 62t-70.5 20q-31 0 -66.5 -8.5t-55.5 -17.5l-20 -9l-39 99q88 43 187 43z" />
    <glyph glyph-name="acircumflex" unicode="&#xe2;" horiz-adv-x="536" 
d="M246 88q32 0 59.5 14t38.5 28l12 13v49q-43 24 -108 24q-34 0 -61 -16t-27 -51q0 -61 86 -61zM260 486q101 0 158.5 -47.5t57.5 -129.5v-309h-111v60q-6 -8 -17 -20t-51 -32t-88 -20q-70 0 -120.5 43t-50.5 116q0 68 54 112.5t132 44.5q39 0 72 -8.5t46 -17.5l14 -8v27
q0 42 -31.5 62t-70.5 20q-31 0 -66.5 -8.5t-55.5 -17.5l-20 -9l-39 99q88 43 187 43zM99 606l186 134l186 -134l-66 -82l-120 91l-122 -91z" />
    <glyph glyph-name="atilde" unicode="&#xe3;" horiz-adv-x="536" 
d="M246 88q32 0 59.5 14t38.5 28l12 13v49q-43 24 -108 24q-34 0 -61 -16t-27 -51q0 -61 86 -61zM260 486q101 0 158.5 -47.5t57.5 -129.5v-309h-111v60q-6 -8 -17 -20t-51 -32t-88 -20q-70 0 -120.5 43t-50.5 116q0 68 54 112.5t132 44.5q39 0 72 -8.5t46 -17.5l14 -8v27
q0 42 -31.5 62t-70.5 20q-31 0 -66.5 -8.5t-55.5 -17.5l-20 -9l-39 99q88 43 187 43zM150 554l-84 61q1 4 4 11t14.5 25t25.5 32t38 25t52 11q32 0 76.5 -29t60.5 -29q19 0 32.5 16.5t17.5 32.5l4 16l82 -65q-1 -4 -4 -11.5t-14 -25.5t-24.5 -32t-37 -25.5t-50.5 -11.5
q-31 0 -76 28.5t-61 28.5q-19 0 -33 -14.5t-19 -29.5z" />
    <glyph glyph-name="adieresis" unicode="&#xe4;" horiz-adv-x="536" 
d="M246 88q32 0 59.5 14t38.5 28l12 13v49q-43 24 -108 24q-34 0 -61 -16t-27 -51q0 -61 86 -61zM260 486q101 0 158.5 -47.5t57.5 -129.5v-309h-111v60q-6 -8 -17 -20t-51 -32t-88 -20q-70 0 -120.5 43t-50.5 116q0 68 54 112.5t132 44.5q39 0 72 -8.5t46 -17.5l14 -8v27
q0 42 -31.5 62t-70.5 20q-31 0 -66.5 -8.5t-55.5 -17.5l-20 -9l-39 99q88 43 187 43zM95 631q0 33 23 56t56 23t56 -23t23 -56t-23 -56t-56 -23t-56 23t-23 56zM301 631q0 33 23 56t56 23t56 -23t23 -56t-23 -56t-56 -23t-56 23t-23 56z" />
    <glyph glyph-name="aring" unicode="&#xe5;" horiz-adv-x="536" 
d="M246 88q32 0 59.5 14t38.5 28l12 13v49q-43 24 -108 24q-34 0 -61 -16t-27 -51q0 -61 86 -61zM260 486q101 0 158.5 -47.5t57.5 -129.5v-309h-111v60q-6 -8 -17 -20t-51 -32t-88 -20q-70 0 -120.5 43t-50.5 116q0 68 54 112.5t132 44.5q39 0 72 -8.5t46 -17.5l14 -8v27
q0 42 -31.5 62t-70.5 20q-31 0 -66.5 -8.5t-55.5 -17.5l-20 -9l-39 99q88 43 187 43zM146 647q0 49 36 84.5t86 35.5t86 -35.5t36 -84.5t-36 -84.5t-86 -35.5t-86 35.5t-36 84.5zM214 647q0 -23 16 -38.5t38 -15.5t38 15.5t16 38.5t-16 38.5t-38 15.5t-38 -15.5t-16 -38.5z
" />
    <glyph glyph-name="ae" unicode="&#xe6;" horiz-adv-x="865" 
d="M602 486q103 0 169 -69t66 -178q0 -26 -1 -44h-351q8 -36 44 -66.5t88 -30.5q37 0 69.5 12t46.5 24l14 12l60 -90q-8 -8 -24 -19t-65.5 -30t-100.5 -19q-124 0 -201 92q-69 -92 -193 -92q-80 0 -132.5 43t-52.5 107t43 103t134 39h149q0 43 -39 69.5t-84 26.5
q-32 0 -64.5 -10.5t-48.5 -21.5l-17 -10l-53 94q9 6 25 16t65.5 26t97.5 16q67 0 112 -25t67 -55q70 80 177 80zM485 280h233q-2 36 -32 66.5t-84 30.5q-53 0 -83 -30t-34 -67zM239 94q62 0 96 29t34 71h-137q-74 0 -74 -50t81 -50z" />
    <glyph glyph-name="ccedilla" unicode="&#xe7;" horiz-adv-x="497" 
d="M319 -62l-68 -214l-111 32l72 194zM283 100q23 0 43 6t33 14.5t23 17t14 14.5l4 6l79 -80q-3 -4 -8 -10t-24 -21.5t-40 -27.5t-54.5 -21.5t-69.5 -9.5q-107 0 -181 72.5t-74 176.5q0 105 74 177t181 72q56 0 104.5 -22t68.5 -44l21 -22l-83 -74q-4 6 -12.5 14t-37.5 22
t-61 14q-59 0 -96 -40t-37 -97t37 -97t96 -40z" />
    <glyph glyph-name="egrave" unicode="&#xe8;" horiz-adv-x="533" 
d="M266 486q100 0 169.5 -70t69.5 -177q0 -27 -1 -45h-354q8 -36 44.5 -66t88.5 -30q37 0 69.5 12t46.5 24l14 12l60 -90q-8 -8 -24 -19t-65.5 -30t-100.5 -19q-108 0 -181.5 72t-73.5 177t68 177t170 72zM150 281h235q-2 36 -33.5 66t-85.5 30q-53 0 -82.5 -29.5
t-33.5 -66.5zM132 694l81 79l171 -174l-77 -73z" />
    <glyph glyph-name="eacute" unicode="&#xe9;" horiz-adv-x="533" 
d="M266 486q100 0 169.5 -70t69.5 -177q0 -27 -1 -45h-354q8 -36 44.5 -66t88.5 -30q37 0 69.5 12t46.5 24l14 12l60 -90q-8 -8 -24 -19t-65.5 -30t-100.5 -19q-108 0 -181.5 72t-73.5 177t68 177t170 72zM150 281h235q-2 36 -33.5 66t-85.5 30q-53 0 -82.5 -29.5
t-33.5 -66.5zM335 773l81 -79l-175 -168l-77 73z" />
    <glyph glyph-name="ecircumflex" unicode="&#xea;" horiz-adv-x="533" 
d="M85 618l186 134l186 -134l-66 -82l-120 91l-122 -91zM266 486q100 0 169.5 -70t69.5 -177q0 -27 -1 -45h-354q8 -36 44.5 -66t88.5 -30q37 0 69.5 12t46.5 24l14 12l60 -90q-8 -8 -24 -19t-65.5 -30t-100.5 -19q-108 0 -181.5 72t-73.5 177t68 177t170 72zM150 281h235
q-2 36 -33.5 66t-85.5 30q-53 0 -82.5 -29.5t-33.5 -66.5z" />
    <glyph glyph-name="edieresis" unicode="&#xeb;" horiz-adv-x="533" 
d="M84 631q0 33 23 56t56 23t56 -23t23 -56t-23 -56t-56 -23t-56 23t-23 56zM290 631q0 33 23 56t56 23t56 -23t23 -56t-23 -56t-56 -23t-56 23t-23 56zM266 486q100 0 169.5 -70t69.5 -177q0 -27 -1 -45h-354q8 -36 44.5 -66t88.5 -30q37 0 69.5 12t46.5 24l14 12l60 -90
q-8 -8 -24 -19t-65.5 -30t-100.5 -19q-108 0 -181.5 72t-73.5 177t68 177t170 72zM150 281h235q-2 36 -33.5 66t-85.5 30q-53 0 -82.5 -29.5t-33.5 -66.5z" />
    <glyph glyph-name="igrave" unicode="&#xec;" horiz-adv-x="278" 
d="M0 695l81 79l171 -174l-77 -73zM77 0v462h120v-462h-120z" />
    <glyph glyph-name="iacute" unicode="&#xed;" horiz-adv-x="278" 
d="M197 773l81 -79l-175 -168l-77 73zM73 0v462h120v-462h-120z" />
    <glyph glyph-name="icircumflex" unicode="&#xee;" horiz-adv-x="308" 
d="M94 0v462h120v-462h-120zM-32 618l186 134l186 -134l-66 -82l-120 91l-122 -91z" />
    <glyph glyph-name="idieresis" unicode="&#xef;" horiz-adv-x="278" 
d="M79 0v462h120v-462h-120zM-43 631q0 33 23 56t56 23t56 -23t23 -56t-23 -56t-56 -23t-56 23t-23 56zM163 631q0 33 23 56t56 23t56 -23t23 -56t-23 -56t-56 -23t-56 23t-23 56z" />
    <glyph glyph-name="eth" unicode="&#xf0;" horiz-adv-x="577" 
d="M117 512l-36 78l101 47q-21 13 -59.5 32.5t-40.5 20.5l47 89q96 -47 160 -92l127 59l36 -78l-88 -41q165 -152 165 -355q0 -126 -71.5 -205t-178.5 -79q-105 0 -178 72t-73 177t73 177t178 72q48 0 86 -19q-36 55 -102 112zM279 100q58 0 94.5 40t36.5 97t-36.5 97
t-94.5 40t-94.5 -40t-36.5 -97t36.5 -97t94.5 -40z" />
    <glyph glyph-name="ntilde" unicode="&#xf1;" horiz-adv-x="548" 
d="M314 486q72 0 123 -48.5t51 -130.5v-307h-120v277q0 49 -26 73t-68 24q-17 0 -33 -6.5t-27 -15t-19 -17.5t-11 -15l-4 -7v-313h-120v474h112v-69q2 3 5.5 8.5t16 19.5t27.5 24.5t40 19.5t53 9zM160 554l-84 61q1 4 4 11t14.5 25t25.5 32t38 25t52 11q32 0 76.5 -29
t60.5 -29q19 0 32.5 16.5t17.5 32.5l4 16l82 -65q-1 -4 -4 -11.5t-14 -25.5t-24.5 -32t-37 -25.5t-50.5 -11.5q-31 0 -76 28.5t-61 28.5q-19 0 -33 -14.5t-19 -29.5z" />
    <glyph glyph-name="ograve" unicode="&#xf2;" horiz-adv-x="562" 
d="M281 486q106 0 179.5 -72t73.5 -177q0 -104 -73.5 -176.5t-179.5 -72.5t-179.5 72.5t-73.5 176.5q0 105 73.5 177t179.5 72zM281 100q59 0 95 40t36 97t-36 97t-95 40t-95 -40t-36 -97t36 -97t95 -40zM125 695l81 79l171 -174l-77 -73z" />
    <glyph glyph-name="oacute" unicode="&#xf3;" horiz-adv-x="562" 
d="M356 773l81 -79l-175 -168l-77 73zM281 486q106 0 179.5 -72t73.5 -177q0 -104 -73.5 -176.5t-179.5 -72.5t-179.5 72.5t-73.5 176.5q0 105 73.5 177t179.5 72zM281 100q59 0 95 40t36 97t-36 97t-95 40t-95 -40t-36 -97t36 -97t95 -40z" />
    <glyph glyph-name="ocircumflex" unicode="&#xf4;" horiz-adv-x="562" 
d="M281 486q106 0 179.5 -72t73.5 -177q0 -104 -73.5 -176.5t-179.5 -72.5t-179.5 72.5t-73.5 176.5q0 105 73.5 177t179.5 72zM281 100q59 0 95 40t36 97t-36 97t-95 40t-95 -40t-36 -97t36 -97t95 -40zM95 606l186 134l186 -134l-66 -82l-120 91l-122 -91z" />
    <glyph glyph-name="otilde" unicode="&#xf5;" horiz-adv-x="562" 
d="M281 486q106 0 179.5 -72t73.5 -177q0 -104 -73.5 -176.5t-179.5 -72.5t-179.5 72.5t-73.5 176.5q0 105 73.5 177t179.5 72zM281 100q59 0 95 40t36 97t-36 97t-95 40t-95 -40t-36 -97t36 -97t95 -40zM164 550l-84 61q1 4 4 11t14.5 25t25.5 32t38 25t52 11
q32 0 76.5 -29t60.5 -29q19 0 32.5 16.5t17.5 32.5l4 16l82 -65q-1 -4 -4 -11.5t-14 -25.5t-24.5 -32t-37 -25.5t-50.5 -11.5q-31 0 -76 28.5t-61 28.5q-19 0 -33 -14.5t-19 -29.5z" />
    <glyph glyph-name="odieresis" unicode="&#xf6;" horiz-adv-x="562" 
d="M281 486q106 0 179.5 -72t73.5 -177q0 -104 -73.5 -176.5t-179.5 -72.5t-179.5 72.5t-73.5 176.5q0 105 73.5 177t179.5 72zM281 100q59 0 95 40t36 97t-36 97t-95 40t-95 -40t-36 -97t36 -97t95 -40zM99 631q0 33 23 56t56 23t56 -23t23 -56t-23 -56t-56 -23t-56 23
t-23 56zM305 631q0 33 23 56t56 23t56 -23t23 -56t-23 -56t-56 -23t-56 23t-23 56z" />
    <glyph glyph-name="divide" unicode="&#xf7;" horiz-adv-x="520" 
d="M180 67q0 33 23 56t56 23t56 -23t23 -56t-23 -56t-56 -23t-56 23t-23 56zM180 407q0 33 23 56t56 23t56 -23t23 -56t-23 -56t-56 -23t-56 23t-23 56zM35 182v110h450v-110h-450z" />
    <glyph glyph-name="oslash" unicode="&#xf8;" horiz-adv-x="570" 
d="M285 486q74 0 136 -38l43 51l48 -40l-43 -51q69 -71 69 -171q0 -104 -73.5 -176.5t-179.5 -72.5q-77 0 -138 39l-46 -54l-48 40l46 54q-67 70 -67 170q0 105 73.5 177t179.5 72zM285 100q59 0 95 40t36 97q0 46 -23 81l-172 -203q27 -15 64 -15zM154 237q0 -47 22 -79
l170 202q-26 14 -61 14q-59 0 -95 -40t-36 -97z" />
    <glyph glyph-name="ugrave" unicode="&#xf9;" horiz-adv-x="548" 
d="M234 -12q-72 0 -123 48.5t-51 130.5v307h120v-274q0 -100 94 -100q28 0 51.5 14.5t32.5 29.5l10 14v316h120v-474h-112v69q-2 -3 -5.5 -8.5t-16.5 -19.5t-28 -24.5t-40 -19.5t-52 -9zM126 695l81 79l171 -174l-77 -73z" />
    <glyph glyph-name="uacute" unicode="&#xfa;" horiz-adv-x="548" 
d="M350 773l81 -79l-175 -168l-77 73zM234 -12q-72 0 -123 48.5t-51 130.5v307h120v-274q0 -100 94 -100q28 0 51.5 14.5t32.5 29.5l10 14v316h120v-474h-112v69q-2 -3 -5.5 -8.5t-16.5 -19.5t-28 -24.5t-40 -19.5t-52 -9z" />
    <glyph glyph-name="ucircumflex" unicode="&#xfb;" horiz-adv-x="548" 
d="M234 -12q-72 0 -123 48.5t-51 130.5v307h120v-274q0 -100 94 -100q28 0 51.5 14.5t32.5 29.5l10 14v316h120v-474h-112v69q-2 -3 -5.5 -8.5t-16.5 -19.5t-28 -24.5t-40 -19.5t-52 -9zM89 606l186 134l186 -134l-66 -82l-120 91l-122 -91z" />
    <glyph glyph-name="udieresis" unicode="&#xfc;" horiz-adv-x="548" 
d="M234 -12q-72 0 -123 48.5t-51 130.5v307h120v-274q0 -100 94 -100q28 0 51.5 14.5t32.5 29.5l10 14v316h120v-474h-112v69q-2 -3 -5.5 -8.5t-16.5 -19.5t-28 -24.5t-40 -19.5t-52 -9zM94 631q0 33 23 56t56 23t56 -23t23 -56t-23 -56t-56 -23t-56 23t-23 56zM300 631
q0 33 23 56t56 23t56 -23t23 -56t-23 -56t-56 -23t-56 23t-23 56z" />
    <glyph glyph-name="yacute" unicode="&#xfd;" horiz-adv-x="557" 
d="M363 773l81 -79l-175 -168l-77 73zM20 -192l56 93q32 -31 63 -31t47.5 13.5t33.5 56.5l19 49l-231 485h133l160 -347l125 347h129l-230 -580q-54 -136 -178 -136q-32 0 -64 12.5t-47 25.5z" />
    <glyph glyph-name="thorn" unicode="&#xfe;" horiz-adv-x="583" 
d="M74 756h120v-332q50 62 134 62q94 0 162.5 -71t68.5 -178t-68.5 -178t-162.5 -71q-85 0 -134 61v-279h-120v986zM194 308v-142q4 -7 11.5 -18t37 -29.5t64.5 -18.5q60 0 95 38.5t35 98.5t-35 98.5t-95 38.5q-22 0 -42 -7t-32.5 -16.5t-21.5 -19t-13 -16.5z" />
    <glyph glyph-name="ydieresis" unicode="&#xff;" horiz-adv-x="557" 
d="M20 -192l56 93q32 -31 63 -31t47.5 13.5t33.5 56.5l19 49l-231 485h133l160 -347l125 347h129l-230 -580q-54 -136 -178 -136q-32 0 -64 12.5t-47 25.5zM106 631q0 33 23 56t56 23t56 -23t23 -56t-23 -56t-56 -23t-56 23t-23 56zM312 631q0 33 23 56t56 23t56 -23t23 -56
t-23 -56t-56 -23t-56 23t-23 56z" />
    <glyph glyph-name="OE" unicode="&#x152;" horiz-adv-x="826" 
d="M524 588v-172h230v-114h-230v-190h260v-112h-405q-147 0 -248 100.5t-101 249.5t101 249.5t248 100.5h399v-112h-254zM404 112v476h-25q-98 0 -162.5 -69.5t-64.5 -168.5q0 -98 64.5 -168t162.5 -70h25z" />
    <glyph glyph-name="oe" unicode="&#x153;" horiz-adv-x="916" 
d="M653 486q103 0 169 -69t66 -178q0 -26 -1 -44h-351q8 -36 44 -66.5t88 -30.5q37 0 69.5 12t46.5 24l14 12l60 -90q-8 -8 -24 -19t-65.5 -30t-100.5 -19q-121 0 -196 86q-73 -86 -192 -86q-105 0 -178.5 72.5t-73.5 176.5q0 105 73.5 177t178.5 72q115 0 190 -85
q70 85 183 85zM280 100q59 0 95.5 40t36.5 97t-36.5 97t-95.5 40t-95.5 -40t-36.5 -97t36.5 -97t95.5 -40zM536 280h233q-2 36 -32 66.5t-84 30.5q-53 0 -83 -30t-34 -67z" />
    <glyph glyph-name="Ydieresis" unicode="&#x178;" horiz-adv-x="614" 
d="M367 276v-276h-120v276l-239 424h132l171 -313l171 313h124zM125 851q0 33 23 56t56 23t56 -23t23 -56t-23 -56t-56 -23t-56 23t-23 56zM331 851q0 33 23 56t56 23t56 -23t23 -56t-23 -56t-56 -23t-56 23t-23 56z" />
    <glyph glyph-name="apostrophemod" unicode="&#x2bc;" horiz-adv-x="186" 
d="M40 454v246h106v-246h-106z" />
    <glyph glyph-name="tilde" unicode="&#x2dc;" horiz-adv-x="425" 
d="M93 537l-84 61q1 4 4 11t14.5 25t25.5 32t38 25t52 11q32 0 76.5 -29t60.5 -29q19 0 32.5 16t17.5 32l4 17l82 -65q-1 -4 -4 -11.5t-14 -25.5t-24.5 -32t-37 -25.5t-50.5 -11.5q-32 0 -76 28.5t-61 28.5q-19 0 -33 -14.5t-18 -28.5z" />
    <glyph glyph-name="endash" unicode="&#x2013;" horiz-adv-x="500" 
d="M0 194v110h500v-110h-500z" />
    <glyph glyph-name="emdash" unicode="&#x2014;" horiz-adv-x="1000" 
d="M0 194v110h1000v-110h-1000z" />
    <glyph glyph-name="quoteleft" unicode="&#x2018;" horiz-adv-x="186" 
d="M40 454v246h106v-246h-106z" />
    <glyph glyph-name="quoteright" unicode="&#x2019;" horiz-adv-x="186" 
d="M40 454v246h106v-246h-106z" />
    <glyph glyph-name="quotedblleft" unicode="&#x201c;" horiz-adv-x="400" 
d="M60 452v248h106v-248h-106zM234 452v248h106v-248h-106z" />
    <glyph glyph-name="quotedblright" unicode="&#x201d;" horiz-adv-x="400" 
d="M60 452v248h106v-248h-106zM234 452v248h106v-248h-106z" />
    <glyph glyph-name="quotedblbase" unicode="&#x201e;" horiz-adv-x="400" 
d="M60 -140v248h106v-248h-106zM234 -140v248h106v-248h-106z" />
    <glyph glyph-name="bullet" unicode="&#x2022;" horiz-adv-x="500" 
d="M106 350q0 59 42.5 101.5t101.5 42.5t101.5 -42.5t42.5 -101.5t-42.5 -101.5t-101.5 -42.5t-101.5 42.5t-42.5 101.5z" />
    <glyph glyph-name="ellipsis" unicode="&#x2026;" horiz-adv-x="1000" 
d="M100 67q0 33 23 56t56 23t56 -23t23 -56t-23 -56t-56 -23t-56 23t-23 56zM420 67q0 33 23 56t56 23t56 -23t23 -56t-23 -56t-56 -23t-56 23t-23 56zM741 67q0 33 23 56t56 23t56 -23t23 -56t-23 -56t-56 -23t-56 23t-23 56z" />
    <glyph glyph-name="guilsinglleft" unicode="&#x2039;" horiz-adv-x="322" 
d="M9 245l183 236l82 -63l-138 -173l138 -173l-82 -63z" />
    <glyph glyph-name="guilsinglright" unicode="&#x203a;" horiz-adv-x="322" 
d="M136 481l183 -236l-183 -236l-82 63l138 173l-138 173z" />
    <glyph glyph-name="Euro" unicode="&#x20ac;" 
d="M22 385v84h88q33 111 119.5 177t205.5 66q29 0 60.5 -6t48.5 -12l17 -6l-36 -102q-38 16 -90 16q-145 0 -200 -133h209v-84h-229q-3 -18 -3 -35q0 -24 2 -35h230v-84h-215q54 -131 200 -131q24 0 46.5 3.5t32.5 6.5l11 4l35 -102q-49 -24 -125 -24q-128 0 -210.5 65
t-116.5 178h-80v84h76q-1 11 -1 35q0 13 2 35h-77z" />
    <glyph glyph-name="trademark" unicode="&#x2122;" horiz-adv-x="805" 
d="M124 330v287h-103v83h293v-83h-103v-287h-87zM359 700h84l115 -184l114 184h81v-370h-87v216l-110 -173l-110 173v-216h-87v370z" />
    <glyph glyph-name="oneeighth" horiz-adv-x="830" 
d="M16 569l158 131h85v-406h-93v289l-97 -80zM137 7l471 724l57 -39l-471 -724zM639 412q65 0 104 -33.5t39 -87.5q0 -24 -12 -44.5t-24 -28.5l-13 -8l6 -3t14 -9t17.5 -16.5t14 -26t6.5 -36.5q0 -54 -41.5 -89.5t-110.5 -35.5t-110.5 35.5t-41.5 89.5q0 20 6 36.5t14.5 26
t17 16.5t14.5 10l6 2q-5 3 -13.5 9t-22 27t-13.5 46q0 54 38.5 87t104.5 33zM639 74q28 0 45 13t17 34t-17 34t-45 13q-29 0 -45.5 -12.5t-16.5 -34.5q0 -21 17 -34t45 -13zM586 289q0 -43 53 -43t53 43t-53 43t-53 -43z" />
    <glyph glyph-name="onethird" horiz-adv-x="830" 
d="M135 7l471 724l57 -39l-471 -724zM699 286q0 20 -15.5 32.5t-43.5 12.5q-14 0 -26.5 -4.5t-20 -10.5t-12.5 -12.5t-7 -11.5l-3 -4l-70 38q2 3 5 9t15 21t26.5 26t39.5 20.5t53 9.5q64 0 106.5 -33t42.5 -93q0 -24 -11.5 -42.5t-23.5 -25.5l-12 -6q2 -1 5.5 -2.5t13 -9
t16.5 -16.5t13 -26t6 -37q0 -60 -45 -93.5t-109 -33.5q-32 0 -59 10t-43 24t-27 28t-15 24l-4 10l74 41q2 -6 6 -15.5t23 -25t45 -15.5q31 0 47.5 13.5t16.5 32.5q0 49 -67 49h-22v70h15q27 0 47 11t20 35zM16 569l158 131h85v-406h-93v289l-97 -80z" />
    <glyph glyph-name="threeeighths" horiz-adv-x="830" 
d="M155 7l471 724l57 -39l-471 -724zM229 580q0 20 -15.5 32.5t-43.5 12.5q-14 0 -26.5 -4.5t-20 -10.5t-12.5 -12.5t-7 -11.5l-3 -4l-70 38q2 3 5 9t15 21t26.5 26t39.5 20.5t53 9.5q64 0 106.5 -33t42.5 -93q0 -24 -11.5 -42.5t-23.5 -25.5l-12 -6q2 -1 5.5 -2.5t13 -9
t16.5 -16.5t13 -26t6 -37q0 -60 -45 -93.5t-109 -33.5q-32 0 -59 10t-43 24t-27 28t-15 24l-4 10l74 41q2 -6 6 -15.5t23 -25t45 -15.5q31 0 47.5 13.5t16.5 32.5q0 49 -67 49h-22v70h15q27 0 47 11t20 35zM651 412q65 0 104 -33.5t39 -87.5q0 -24 -12 -44.5t-24 -28.5
l-13 -8l6 -3t14 -9t17.5 -16.5t14 -26t6.5 -36.5q0 -54 -41.5 -89.5t-110.5 -35.5t-110.5 35.5t-41.5 89.5q0 20 6 36.5t14.5 26t17 16.5t14.5 10l6 2q-5 3 -13.5 9t-22 27t-13.5 46q0 54 38.5 87t104.5 33zM651 74q28 0 45 13t17 34t-17 34t-45 13q-29 0 -45.5 -12.5
t-16.5 -34.5q0 -21 17 -34t45 -13zM598 289q0 -43 53 -43t53 43t-53 43t-53 -43z" />
    <glyph glyph-name="fiveeighths" horiz-adv-x="830" 
d="M332 430q0 -65 -47 -103.5t-108 -38.5q-32 0 -59 9.5t-43 22.5t-27 26t-15 22l-4 10l69 46q1 -2 2.5 -5.5t8 -12.5t14.5 -16t22.5 -12.5t31.5 -5.5q30 0 47.5 16.5t17.5 41.5q0 28 -20 45.5t-59 17.5q-25 0 -53 -7.5t-44 -14.5l-15 -7v236h275v-84h-185v-54q19 4 49 4
q58 0 100 -35t42 -101zM149 7l471 724l57 -39l-471 -724zM651 412q65 0 104 -33.5t39 -87.5q0 -24 -12 -44.5t-24 -28.5l-13 -8l6 -3t14 -9t17.5 -16.5t14 -26t6.5 -36.5q0 -54 -41.5 -89.5t-110.5 -35.5t-110.5 35.5t-41.5 89.5q0 20 6 36.5t14.5 26t17 16.5t14.5 10l6 2
q-5 3 -13.5 9t-22 27t-13.5 46q0 54 38.5 87t104.5 33zM651 74q28 0 45 13t17 34t-17 34t-45 13q-29 0 -45.5 -12.5t-16.5 -34.5q0 -21 17 -34t45 -13zM598 289q0 -43 53 -43t53 43t-53 43t-53 -43z" />
    <glyph glyph-name="twothirds" horiz-adv-x="817" 
d="M22 294l152 184q1 2 13 16.5t17 22t11 21.5t6 26q0 25 -17.5 41t-45.5 16q-24 0 -40.5 -14.5t-21.5 -29.5l-5 -15l-79 27q1 5 4 13t14.5 28t26 35.5t42 28t59.5 12.5q74 0 114 -42t40 -98q0 -48 -32 -90l-75 -100h111v-82h-294zM702 286q0 20 -15.5 32.5t-43.5 12.5
q-14 0 -26.5 -4.5t-19.5 -10.5t-12.5 -12.5t-8.5 -11.5l-2 -4l-70 38q2 3 5 9t15 21t26.5 26t39.5 20.5t53 9.5q64 0 106.5 -33t42.5 -93q0 -24 -12 -42.5t-24 -25.5l-11 -6q2 -1 5.5 -2.5t13 -9t16.5 -16.5t13 -26t6 -37q0 -60 -45 -93.5t-109 -33.5q-32 0 -59 10t-43 24
t-27 28t-15 24l-4 10l74 41q2 -6 6 -15.5t23 -25t45 -15.5q31 0 47.5 13.5t16.5 32.5q0 49 -67 49h-22v70h15q27 0 47 11t20 35zM169 7l471 724l57 -39l-471 -724z" />
    <glyph glyph-name="seveneighths" horiz-adv-x="830" 
d="M62 616v84h313l-219 -423l-76 41l157 298h-175zM114 7l471 724l57 -39l-471 -724zM645 412q65 0 104 -33.5t39 -87.5q0 -24 -12 -44.5t-24 -28.5l-13 -8l6 -3t14 -9t17.5 -16.5t14 -26t6.5 -36.5q0 -54 -41.5 -89.5t-110.5 -35.5t-110.5 35.5t-41.5 89.5q0 20 6 36.5
t14.5 26t17 16.5t14.5 10l6 2q-5 3 -13.5 9t-22 27t-13.5 46q0 54 38.5 87t104.5 33zM645 74q28 0 45 13t17 34t-17 34t-45 13q-29 0 -45.5 -12.5t-16.5 -34.5q0 -21 17 -34t45 -13zM592 289q0 -43 53 -43t53 43t-53 43t-53 -43z" />
    <glyph glyph-name="a.alt" horiz-adv-x="573" 
d="M402 474h111v-474h-111v62q-2 -3 -5 -8t-16 -18t-28 -22.5t-40 -17.5t-54 -8q-94 0 -162.5 71t-68.5 178t68.5 178t162.5 71q44 0 79.5 -18.5t49.5 -37.5l14 -18v62zM393 166v142q-1 3 -4 7.5t-13 15.5t-22 20t-31.5 16t-41.5 7q-60 0 -95.5 -38.5t-35.5 -98.5
t35.5 -98.5t95.5 -38.5q34 0 62 16.5t39 33.5z" />
    <glyph glyph-name="agrave.alt" horiz-adv-x="573" 
d="M402 474h111v-474h-111v62q-2 -3 -5 -8t-16 -18t-28 -22.5t-40 -17.5t-54 -8q-94 0 -162.5 71t-68.5 178t68.5 178t162.5 71q44 0 79.5 -18.5t49.5 -37.5l14 -18v62zM393 166v142q-1 3 -4 7.5t-13 15.5t-22 20t-31.5 16t-41.5 7q-60 0 -95.5 -38.5t-35.5 -98.5
t35.5 -98.5t95.5 -38.5q34 0 62 16.5t39 33.5zM149 704l81 79l171 -174l-77 -73z" />
    <glyph glyph-name="aacute.alt" horiz-adv-x="573" 
d="M350 783l81 -79l-175 -168l-77 73zM402 474h111v-474h-111v62q-2 -3 -5 -8t-16 -18t-28 -22.5t-40 -17.5t-54 -8q-94 0 -162.5 71t-68.5 178t68.5 178t162.5 71q44 0 79.5 -18.5t49.5 -37.5l14 -18v62zM393 166v142q-1 3 -4 7.5t-13 15.5t-22 20t-31.5 16t-41.5 7
q-60 0 -95.5 -38.5t-35.5 -98.5t35.5 -98.5t95.5 -38.5q34 0 62 16.5t39 33.5z" />
    <glyph glyph-name="acircumflex.alt" horiz-adv-x="573" 
d="M402 474h111v-474h-111v62q-2 -3 -5 -8t-16 -18t-28 -22.5t-40 -17.5t-54 -8q-94 0 -162.5 71t-68.5 178t68.5 178t162.5 71q44 0 79.5 -18.5t49.5 -37.5l14 -18v62zM393 166v142q-1 3 -4 7.5t-13 15.5t-22 20t-31.5 16t-41.5 7q-60 0 -95.5 -38.5t-35.5 -98.5
t35.5 -98.5t95.5 -38.5q34 0 62 16.5t39 33.5zM106 606l186 134l186 -134l-66 -82l-120 91l-122 -91z" />
    <glyph glyph-name="atilde.alt" horiz-adv-x="573" 
d="M402 474h111v-474h-111v62q-2 -3 -5 -8t-16 -18t-28 -22.5t-40 -17.5t-54 -8q-94 0 -162.5 71t-68.5 178t68.5 178t162.5 71q44 0 79.5 -18.5t49.5 -37.5l14 -18v62zM393 166v142q-1 3 -4 7.5t-13 15.5t-22 20t-31.5 16t-41.5 7q-60 0 -95.5 -38.5t-35.5 -98.5
t35.5 -98.5t95.5 -38.5q34 0 62 16.5t39 33.5zM157 554l-84 61q1 4 4 11t14.5 25t25.5 32t38 25t52 11q32 0 76.5 -29t60.5 -29q19 0 32.5 16.5t17.5 32.5l4 16l82 -65q-1 -4 -4 -11.5t-14 -25.5t-24.5 -32t-37 -25.5t-50.5 -11.5q-32 0 -76 28.5t-61 28.5q-19 0 -33 -14.5
t-18 -29.5z" />
    <glyph glyph-name="adieresis.alt" horiz-adv-x="573" 
d="M402 474h111v-474h-111v62q-2 -3 -5 -8t-16 -18t-28 -22.5t-40 -17.5t-54 -8q-94 0 -162.5 71t-68.5 178t68.5 178t162.5 71q44 0 79.5 -18.5t49.5 -37.5l14 -18v62zM393 166v142q-1 3 -4 7.5t-13 15.5t-22 20t-31.5 16t-41.5 7q-60 0 -95.5 -38.5t-35.5 -98.5
t35.5 -98.5t95.5 -38.5q34 0 62 16.5t39 33.5zM109 631q0 33 23 56t56 23t56 -23t23 -56t-23 -56t-56 -23t-56 23t-23 56zM315 631q0 33 23 56t56 23t56 -23t23 -56t-23 -56t-56 -23t-56 23t-23 56z" />
    <glyph glyph-name="aring.alt" horiz-adv-x="573" 
d="M402 474h111v-474h-111v62q-2 -3 -5 -8t-16 -18t-28 -22.5t-40 -17.5t-54 -8q-94 0 -162.5 71t-68.5 178t68.5 178t162.5 71q44 0 79.5 -18.5t49.5 -37.5l14 -18v62zM393 166v142q-1 3 -4 7.5t-13 15.5t-22 20t-31.5 16t-41.5 7q-60 0 -95.5 -38.5t-35.5 -98.5
t35.5 -98.5t95.5 -38.5q34 0 62 16.5t39 33.5zM164 648q0 49 36 84.5t86 35.5t86 -35.5t36 -84.5t-36 -84.5t-86 -35.5t-86 35.5t-36 84.5zM232 648q0 -22 16 -38t38 -16t38 16t16 38t-16 38t-38 16t-38 -16t-16 -38z" />
    <glyph glyph-name="zero.lnum_tnum" 
d="M291 712q65 0 116 -29.5t82 -80.5t47.5 -115t16.5 -137t-16.5 -137t-47.5 -115t-82 -80.5t-116 -29.5q-85 0 -146.5 51.5t-89.5 132t-28 178.5t28 178.5t89.5 132t146.5 51.5zM291 100q69 0 105.5 70.5t36.5 179.5t-36.5 179.5t-105.5 70.5q-70 0 -107 -70.5t-37 -179.5
t37 -179.5t107 -70.5z" />
    <glyph glyph-name="one.lnum_tnum" 
d="M73 504l246 196h99v-700h-120v540l-156 -124z" />
    <glyph glyph-name="two.lnum_tnum" 
d="M48 0l257 326q3 3 18 21.5t22.5 30t19 31t16.5 40.5t5 43q0 44 -28.5 76t-75.5 32q-29 0 -52.5 -10.5t-36.5 -25.5t-21.5 -30t-11.5 -26l-3 -10l-107 39q2 7 6 19t22 42t41.5 53t67 42t95.5 19q108 0 166 -62.5t58 -155.5q0 -89 -61 -172l-161 -208h225v-114h-461z" />
    <glyph glyph-name="three.lnum_tnum" 
d="M384 502q0 42 -29.5 70t-75.5 28q-25 0 -47 -9t-34.5 -21t-21.5 -24.5t-12 -21.5l-4 -9l-104 49q2 6 6.5 16t23 35.5t41.5 45t64 35.5t88 16q98 0 162 -57.5t64 -152.5q0 -28 -9 -53.5t-21.5 -42t-25 -28.5t-21.5 -18l-9 -5q4 -1 11 -3.5t25 -14.5t31.5 -28t24.5 -46
t11 -68q0 -93 -69 -150t-173 -57q-55 0 -100 16.5t-71 40.5t-43.5 48t-23.5 41l-7 16l98 57q1 -4 4 -11.5t14.5 -26t26.5 -32.5t42.5 -25.5t59.5 -11.5q56 0 89 27t33 68q0 51 -36.5 75t-90.5 24h-50v110h38q121 0 121 98z" />
    <glyph glyph-name="four.lnum_tnum" 
d="M-15 152l356 548h134v-436h77v-112h-77v-152h-120v152h-370zM181 264h176v271z" />
    <glyph glyph-name="five.lnum_tnum" 
d="M545 230q0 -115 -74.5 -178.5t-174.5 -63.5q-52 0 -96 16.5t-70.5 40.5t-45 48t-26.5 41l-7 16l100 57q1 -4 4.5 -11.5t15.5 -26t27 -32.5t41 -25.5t57 -11.5q59 0 93.5 37t34.5 93q0 59 -37 94.5t-112 35.5q-43 0 -90 -19t-73 -38l-25 -19v416h440v-114h-320v-137
q39 21 99 21q100 0 169.5 -62t69.5 -178z" />
    <glyph glyph-name="six.lnum_tnum" 
d="M407 670l-130 -211q13 3 24 3q108 0 172.5 -71t64.5 -166q0 -94 -68.5 -165.5t-176.5 -71.5t-176.5 71t-68.5 164q0 73 39 145l220 364zM293 350q-53 0 -88.5 -34.5t-35.5 -90.5t35.5 -90.5t88.5 -34.5t88.5 34.5t35.5 90.5t-35.5 90.5t-88.5 34.5z" />
    <glyph glyph-name="seven.lnum_tnum" 
d="M69 586v114h500l-375 -724l-102 53l288 557h-311z" />
    <glyph glyph-name="eight.lnum_tnum" 
d="M290 712q104 0 162 -59t58 -143q0 -41 -19.5 -75.5t-38.5 -48.5l-20 -14q4 -2 10.5 -5t23.5 -17t30 -31t23.5 -47t10.5 -66q0 -92 -65 -155t-175 -63t-175 63t-65 155q0 36 10 66t24.5 47.5t29 30t24.5 17.5l10 5q-3 2 -8.5 5.5t-19 16.5t-23.5 27.5t-18.5 38.5t-8.5 50
q0 84 58 143t162 59zM290 98q56 0 87.5 32t31.5 78t-31.5 77t-87.5 31t-87.5 -31t-31.5 -77t31.5 -78t87.5 -32zM391 509q0 42 -29 67.5t-72 25.5t-72 -25.5t-29 -67.5t29 -67.5t72 -25.5t72 25.5t29 67.5z" />
    <glyph glyph-name="nine.lnum_tnum" 
d="M175 34l128 207q-13 -3 -24 -3q-104 0 -170.5 71.5t-66.5 165.5t68.5 165.5t176.5 71.5t176.5 -71t68.5 -164q0 -69 -40 -145l-217 -360zM287 350q53 0 88.5 34.5t35.5 90.5t-35.5 90.5t-88.5 34.5t-88.5 -34.5t-35.5 -90.5t35.5 -90.5t88.5 -34.5z" />
    <glyph glyph-name="zero.onum_pnum" horiz-adv-x="554" 
d="M277 486q108 0 181.5 -72t73.5 -177t-73.5 -177t-181.5 -72t-181.5 72t-73.5 177t73.5 177t181.5 72zM277 100q59 0 97 39t38 98t-38 98t-97 39t-97 -39t-38 -98t38 -98t97 -39z" />
    <glyph glyph-name="one.onum_pnum" horiz-adv-x="396" 
d="M9 307l210 167h111v-474h-120v322l-131 -105z" />
    <glyph glyph-name="two.onum_pnum" horiz-adv-x="500" 
d="M377 187l-72 -73h145v-114h-408l201 200q2 2 14 13.5t16 16t13 15.5t13 18.5t7.5 18t3.5 20.5q0 31 -23 51.5t-54 20.5q-28 0 -49.5 -17.5t-29.5 -34.5l-7 -18l-103 43q2 6 6 15t19.5 33t35 42.5t54 33.5t74.5 15q79 0 138 -51t59 -128q0 -34 -12 -60t-41 -60z" />
    <glyph glyph-name="three.onum_pnum" horiz-adv-x="543" 
d="M368 283q0 39 -30 65t-74 26q-36 0 -64 -21t-38 -41l-9 -21l-103 50q2 6 7 15.5t23 34.5t40.5 44.5t61 35t82.5 15.5q92 0 158 -53t66 -150q0 -43 -18 -76.5t-36 -46.5l-18 -12q4 -1 9.5 -4t21 -14.5t27 -27t21 -44t9.5 -62.5q0 -94 -68.5 -150t-167.5 -56
q-50 0 -93 16.5t-68.5 39.5t-43.5 46t-25 40l-7 16l102 54q1 -4 4 -11t14 -24t25 -30t38.5 -24t53.5 -11q54 0 85 26t31 68q0 93 -116 93h-42v104h42q43 0 71.5 23.5t28.5 66.5z" />
    <glyph glyph-name="four.onum_pnum" horiz-adv-x="574" 
d="M-4 0l348 474h133v-364h73v-110h-73v-198h-119v198h-362zM201 110h157v217z" />
    <glyph glyph-name="five.onum_pnum" horiz-adv-x="586" 
d="M540 25q0 -76 -37.5 -131t-92.5 -79.5t-118 -24.5q-50 0 -93.5 16.5t-68.5 40t-43.5 47.5t-25.5 40l-7 17l99 56q1 -4 4.5 -11t15 -25.5t26 -32t39.5 -25t54 -11.5q56 0 92 31t36 92t-37.5 93.5t-96.5 32.5q-43 0 -92 -18.5t-76 -37.5l-27 -19v398h437v-120h-317v-108
q43 17 95 17q99 0 166.5 -62t67.5 -176z" />
    <glyph glyph-name="six.onum_pnum" horiz-adv-x="562" 
d="M397 670l-130 -211q13 3 24 3q108 0 172.5 -71t64.5 -166q0 -94 -68.5 -165.5t-176.5 -71.5t-176.5 71t-68.5 164q0 73 39 145l220 364zM283 350q-53 0 -88.5 -34.5t-35.5 -90.5t35.5 -90.5t88.5 -34.5t88.5 34.5t35.5 90.5t-35.5 90.5t-88.5 34.5z" />
    <glyph glyph-name="seven.onum_pnum" horiz-adv-x="496" 
d="M24 354v120h480l-353 -684l-109 58l262 506h-280z" />
    <glyph glyph-name="eight.onum_pnum" horiz-adv-x="576" 
d="M288 712q104 0 162 -59t58 -143q0 -41 -19.5 -75.5t-38.5 -48.5l-20 -14q4 -2 10.5 -5t23.5 -17t30 -31t23.5 -47t10.5 -66q0 -92 -65 -155t-175 -63t-175 63t-65 155q0 36 10 66t24.5 47.5t29 30t24.5 17.5l10 5q-3 2 -8.5 5.5t-19 16.5t-23.5 27.5t-18.5 38.5t-8.5 50
q0 84 58 143t162 59zM288 98q56 0 87.5 32t31.5 78t-31.5 77t-87.5 31t-87.5 -31t-31.5 -77t31.5 -78t87.5 -32zM389 509q0 42 -29 67.5t-72 25.5t-72 -25.5t-29 -67.5t29 -67.5t72 -25.5t72 25.5t29 67.5z" />
    <glyph glyph-name="nine.onum_pnum" horiz-adv-x="556" 
d="M184 -156l104 170q-5 -1 -18 -1q-102 0 -169 71t-67 165t68 165.5t175 71.5t174 -71t67 -164q0 -65 -42 -144l-194 -326zM276 124q52 0 87 35t35 90t-35 90t-87 35t-87 -35t-35 -90t35 -90t87 -35z" />
    <glyph glyph-name="zero.onum_tnum" 
d="M290 486q108 0 181.5 -72t73.5 -177t-73.5 -177t-181.5 -72t-181.5 72t-73.5 177t73.5 177t181.5 72zM290 100q59 0 97 39t38 98t-38 98t-97 39t-97 -39t-38 -98t38 -98t97 -39z" />
    <glyph glyph-name="one.onum_tnum" 
d="M64 292l230 182h111v-474h-120v322l-151 -120z" />
    <glyph glyph-name="two.onum_tnum" 
d="M403 187l-72 -73h145v-114h-408l201 200q2 2 14 13.5t16 16t13 15.5t13 18.5t7.5 18t3.5 20.5q0 31 -23 51.5t-54 20.5q-28 0 -49.5 -17.5t-29.5 -34.5l-7 -18l-103 43q2 6 6 15t19.5 33t35 42.5t54 33.5t74.5 15q79 0 138 -51t59 -128q0 -34 -12 -60t-41 -60z" />
    <glyph glyph-name="three.onum_tnum" 
d="M372 283q0 39 -30 65t-74 26q-36 0 -64 -21t-38 -41l-9 -21l-103 50q2 6 7 15.5t23 34.5t40.5 44.5t61 35t82.5 15.5q92 0 158 -53t66 -150q0 -43 -18 -76.5t-36 -46.5l-18 -12q4 -1 9.5 -4t21 -14.5t27 -27t21 -44t9.5 -62.5q0 -94 -68.5 -150t-167.5 -56
q-50 0 -93 16.5t-68.5 39.5t-43.5 46t-25 40l-7 16l102 54q1 -4 4 -11t14 -24t25 -30t38.5 -24t53.5 -11q54 0 85 26t31 68q0 93 -116 93h-42v104h42q43 0 71.5 23.5t28.5 66.5z" />
    <glyph glyph-name="four.onum_tnum" 
d="M-14 0l348 474h133v-364h73v-110h-73v-198h-119v198h-362zM191 110h157v217z" />
    <glyph glyph-name="five.onum_tnum" 
d="M539 25q0 -76 -37.5 -131t-92.5 -79.5t-118 -24.5q-50 0 -93.5 16.5t-68.5 40t-43.5 47.5t-25.5 40l-7 17l99 56q1 -4 4.5 -11t15 -25.5t26 -32t39.5 -25t54 -11.5q56 0 92 31t36 92t-37.5 93.5t-96.5 32.5q-43 0 -92 -18.5t-76 -37.5l-27 -19v398h437v-120h-317v-108
q43 17 95 17q99 0 166.5 -62t67.5 -176z" />
    <glyph glyph-name="six.onum_tnum" 
d="M409 670l-130 -211q13 3 24 3q108 0 172.5 -71t64.5 -166q0 -94 -68.5 -165.5t-176.5 -71.5t-176.5 71t-68.5 164q0 73 39 145l220 364zM295 350q-53 0 -88.5 -34.5t-35.5 -90.5t35.5 -90.5t88.5 -34.5t88.5 34.5t35.5 90.5t-35.5 90.5t-88.5 34.5z" />
    <glyph glyph-name="seven.onum_tnum" 
d="M90 354v120h480l-353 -684l-109 58l262 506h-280z" />
    <glyph glyph-name="eight.onum_tnum" 
d="M290 712q104 0 162 -59t58 -143q0 -41 -19.5 -75.5t-38.5 -48.5l-20 -14q4 -2 10.5 -5t23.5 -17t30 -31t23.5 -47t10.5 -66q0 -92 -65 -155t-175 -63t-175 63t-65 155q0 36 10 66t24.5 47.5t29 30t24.5 17.5l10 5q-3 2 -8.5 5.5t-19 16.5t-23.5 27.5t-18.5 38.5t-8.5 50
q0 84 58 143t162 59zM290 98q56 0 87.5 32t31.5 78t-31.5 77t-87.5 31t-87.5 -31t-31.5 -77t31.5 -78t87.5 -32zM391 509q0 42 -29 67.5t-72 25.5t-72 -25.5t-29 -67.5t29 -67.5t72 -25.5t72 25.5t29 67.5z" />
    <glyph glyph-name="nine.onum_tnum" 
d="M196 -156l104 170q-5 -1 -18 -1q-102 0 -169 71t-67 165t68 165.5t175 71.5t174 -71t67 -164q0 -65 -42 -144l-194 -326zM288 124q52 0 87 35t35 90t-35 90t-87 35t-87 -35t-35 -90t35 -90t87 -35z" />
    <glyph glyph-name="zerosuperior" horiz-adv-x="386" 
d="M193 806q76 0 119.5 -58t43.5 -150t-43.5 -151t-119.5 -59t-119.5 59t-43.5 151t43.5 150t119.5 58zM193 473q38 0 55 36t17 89q0 52 -16.5 88t-55.5 36q-72 0 -72 -124q0 -125 72 -125z" />
    <glyph glyph-name="foursuperior" horiz-adv-x="386" 
d="M4 472l208 328h98v-250h50v-78h-50v-78h-86v78h-220zM140 550h84v134z" />
    <glyph glyph-name="fivesuperior" horiz-adv-x="383" 
d="M345 530q0 -65 -47 -103.5t-108 -38.5q-32 0 -59 9.5t-43 22.5t-27 26t-15 22l-4 10l69 46q1 -2 2.5 -5.5t8 -12.5t14.5 -16t22.5 -12.5t31.5 -5.5q30 0 47.5 16.5t17.5 41.5q0 28 -20 45.5t-59 17.5q-25 0 -53 -7.5t-43 -14.5l-16 -7v236h275v-84h-185v-54q19 4 49 4
q58 0 100 -35t42 -101z" />
    <glyph glyph-name="sixsuperior" horiz-adv-x="355" 
d="M255 783l-72 -117q63 0 105.5 -41t42.5 -96q0 -56 -42 -98.5t-111 -42.5q-67 0 -108.5 42.5t-41.5 97.5q0 36 26 83l129 218zM178 587q-27 0 -45.5 -16t-18.5 -42t18.5 -42t45.5 -16q26 0 44.5 16t18.5 42t-18.5 42t-44.5 16z" />
    <glyph glyph-name="sevensuperior" horiz-adv-x="333" 
d="M16 716v84h313l-219 -423l-76 41l157 298h-175z" />
    <glyph glyph-name="eightsuperior" horiz-adv-x="368" 
d="M184 806q65 0 104 -33.5t39 -87.5q0 -24 -12.5 -44.5t-24.5 -28.5l-12 -8l6 -3t14 -9t17.5 -16.5t14 -26t6.5 -36.5q0 -54 -41.5 -89.5t-110.5 -35.5t-110.5 35.5t-41.5 89.5q0 20 6 36.5t14.5 26t17 16.5t14.5 10l6 2q-5 3 -13.5 9t-22 27t-13.5 46q0 54 38.5 87
t104.5 33zM184 468q28 0 45 13t17 34t-17 34t-45 13q-29 0 -45.5 -12.5t-16.5 -34.5q0 -21 17 -34t45 -13zM131 683q0 -43 53 -43t53 43t-53 43t-53 -43z" />
    <glyph glyph-name="ninesuperior" horiz-adv-x="355" 
d="M106 421l66 105q-63 0 -105.5 42t-42.5 97q0 56 42 98.5t111 42.5q67 0 108.5 -42.5t41.5 -97.5q0 -36 -26 -83l-123 -208zM177 607q27 0 45.5 16t18.5 42t-18.5 42t-45.5 16q-26 0 -44.5 -16t-18.5 -42t18.5 -42t44.5 -16z" />
    <glyph glyph-name="zeroinferior" horiz-adv-x="386" 
d="M193 319q76 0 119.5 -58t43.5 -150t-43.5 -151t-119.5 -59t-119.5 59t-43.5 151t43.5 150t119.5 58zM193 -14q38 0 55 36t17 89q0 52 -16.5 88t-55.5 36q-72 0 -72 -124q0 -125 72 -125z" />
    <glyph glyph-name="oneinferior" horiz-adv-x="323" 
d="M8 182l158 131h85v-406h-93v289l-97 -80z" />
    <glyph glyph-name="twoinferior" horiz-adv-x="362" 
d="M32 -93l152 184q1 2 13 16.5t17 22t11 21.5t6 26q0 25 -17.5 41t-45.5 16q-24 0 -40.5 -15t-21.5 -29l-5 -15l-79 27q1 5 4 13t14.5 28t26 35.5t42 28t59.5 12.5q74 0 114 -42t40 -98q0 -48 -32 -90l-75 -100h111v-82h-294z" />
    <glyph glyph-name="threeinferior" horiz-adv-x="368" 
d="M235 193q0 20 -15.5 32.5t-43.5 12.5q-22 0 -39.5 -11t-23.5 -21l-6 -11l-70 38q2 3 5 9t15 21t26.5 26t39.5 20.5t53 9.5q64 0 106.5 -33t42.5 -93q0 -24 -11.5 -42.5t-23.5 -24.5l-12 -7q2 -1 5.5 -2.5t13 -9t16.5 -16.5t13 -26t6 -37q0 -60 -45 -93.5t-109 -33.5
q-32 0 -59 10t-43 24t-27 28t-15 24l-4 10l74 41q2 -6 6 -15.5t23 -25t45 -15.5q31 0 47.5 13.5t16.5 32.5q0 49 -67 49h-22v70h15q27 0 47 11t20 35z" />
    <glyph glyph-name="fourinferior" horiz-adv-x="386" 
d="M4 -15l208 328h98v-250h50v-78h-50v-78h-86v78h-220zM140 63h84v134z" />
    <glyph glyph-name="fiveinferior" horiz-adv-x="383" 
d="M345 43q0 -65 -47 -103.5t-108 -38.5q-32 0 -59 9.5t-43 22.5t-27 26t-15 23l-4 9l69 46q1 -2 2.5 -5.5t8 -12.5t14.5 -16t22.5 -12.5t31.5 -5.5q30 0 47.5 16.5t17.5 41.5q0 28 -20 45.5t-59 17.5q-25 0 -53 -7t-43 -15l-16 -7v236h275v-84h-185v-54q19 4 49 4
q58 0 100 -35t42 -101z" />
    <glyph glyph-name="sixinferior" horiz-adv-x="355" 
d="M255 296l-72 -117q63 0 105.5 -41t42.5 -96q0 -56 -42 -98.5t-111 -42.5q-67 0 -108.5 42.5t-41.5 97.5q0 36 26 83l129 218zM178 100q-27 0 -45.5 -16t-18.5 -42t18.5 -42t45.5 -16q26 0 44.5 16t18.5 42t-18.5 42t-44.5 16z" />
    <glyph glyph-name="seveninferior" horiz-adv-x="333" 
d="M16 229v84h313l-219 -423l-76 41l157 298h-175z" />
    <glyph glyph-name="eightinferior" horiz-adv-x="368" 
d="M184 319q65 0 104 -33.5t39 -87.5q0 -24 -12.5 -44.5t-24.5 -28.5l-12 -8l6 -3t14 -9t17.5 -16.5t14 -26t6.5 -36.5q0 -54 -41.5 -89.5t-110.5 -35.5t-110.5 35.5t-41.5 89.5q0 20 6 36.5t14.5 26t17 16.5t14.5 9l6 3q-5 3 -13.5 9t-22 27t-13.5 46q0 54 38.5 87
t104.5 33zM184 -19q28 0 45 13t17 34t-17 34t-45 13q-29 0 -45.5 -12.5t-16.5 -34.5q0 -21 17 -34t45 -13zM131 196q0 -43 53 -43t53 43t-53 43t-53 -43z" />
    <glyph glyph-name="nineinferior" horiz-adv-x="355" 
d="M106 -66l66 105q-63 0 -105.5 42t-42.5 97q0 56 42 98.5t111 42.5q67 0 108.5 -42.5t41.5 -97.5q0 -36 -26 -83l-123 -208zM177 120q27 0 45.5 16t18.5 42t-18.5 42t-45.5 16q-26 0 -44.5 -16t-18.5 -42t18.5 -42t44.5 -16z" />
    <glyph glyph-name="zero.numerator" horiz-adv-x="386" 
d="M193 706q76 0 119.5 -58t43.5 -150t-43.5 -151t-119.5 -59t-119.5 59t-43.5 151t43.5 150t119.5 58zM193 373q38 0 55 36t17 89q0 52 -16.5 88t-55.5 36q-72 0 -72 -124q0 -125 72 -125z" />
    <glyph glyph-name="one.numerator" horiz-adv-x="323" 
d="M8 569l158 131h85v-406h-93v289l-97 -80z" />
    <glyph glyph-name="two.numerator" horiz-adv-x="362" 
d="M32 294l152 184q1 2 13 16.5t17 22t11 21.5t6 26q0 25 -17.5 41t-45.5 16q-24 0 -40.5 -14.5t-21.5 -29.5l-5 -15l-79 27q1 5 4 13t14.5 28t26 35.5t42 28t59.5 12.5q74 0 114 -42t40 -98q0 -48 -32 -90l-75 -100h111v-82h-294z" />
    <glyph glyph-name="three.numerator" horiz-adv-x="368" 
d="M235 580q0 20 -15.5 32.5t-43.5 12.5q-14 0 -26.5 -4.5t-20 -10.5t-12.5 -12.5t-7 -11.5l-3 -4l-70 38q2 3 5 9t15 21t26.5 26t39.5 20.5t53 9.5q64 0 106.5 -33t42.5 -93q0 -24 -11.5 -42.5t-23.5 -25.5l-12 -6q2 -1 5.5 -2.5t13 -9t16.5 -16.5t13 -26t6 -37
q0 -60 -45 -93.5t-109 -33.5q-32 0 -59 10t-43 24t-27 28t-15 24l-4 10l74 41q2 -6 6 -15.5t23 -25t45 -15.5q31 0 47.5 13.5t16.5 32.5q0 49 -67 49h-22v70h15q27 0 47 11t20 35z" />
    <glyph glyph-name="four.numerator" horiz-adv-x="386" 
d="M4 372l208 328h98v-250h50v-78h-50v-78h-86v78h-220zM140 450h84v134z" />
    <glyph glyph-name="five.numerator" horiz-adv-x="383" 
d="M345 430q0 -65 -47 -103.5t-108 -38.5q-32 0 -59 9.5t-43 22.5t-27 26t-15 22l-4 10l69 46q1 -2 2.5 -5.5t8 -12.5t14.5 -16t22.5 -12.5t31.5 -5.5q30 0 47.5 16.5t17.5 41.5q0 28 -20 45.5t-59 17.5q-25 0 -53 -7.5t-43 -14.5l-16 -7v236h275v-84h-185v-54q19 4 49 4
q58 0 100 -35t42 -101z" />
    <glyph glyph-name="six.numerator" horiz-adv-x="355" 
d="M255 683l-72 -117q63 0 105.5 -41t42.5 -96q0 -56 -42 -98.5t-111 -42.5q-67 0 -108.5 42.5t-41.5 97.5q0 36 26 83l129 218zM178 487q-27 0 -45.5 -16t-18.5 -42t18.5 -42t45.5 -16q26 0 44.5 16t18.5 42t-18.5 42t-44.5 16z" />
    <glyph glyph-name="seven.numerator" horiz-adv-x="333" 
d="M16 616v84h313l-219 -423l-76 41l157 298h-175z" />
    <glyph glyph-name="eight.numerator" horiz-adv-x="368" 
d="M184 706q65 0 104 -33.5t39 -87.5q0 -24 -12.5 -44.5t-24.5 -28.5l-12 -8l6 -3t14 -9t17.5 -16.5t14 -26t6.5 -36.5q0 -54 -41.5 -89.5t-110.5 -35.5t-110.5 35.5t-41.5 89.5q0 20 6 36.5t14.5 26t17 16.5t14.5 10l6 2q-5 3 -13.5 9t-22 27t-13.5 46q0 54 38.5 87
t104.5 33zM184 368q28 0 45 13t17 34t-17 34t-45 13q-29 0 -45.5 -12.5t-16.5 -34.5q0 -21 17 -34t45 -13zM131 583q0 -43 53 -43t53 43t-53 43t-53 -43z" />
    <glyph glyph-name="nine.numerator" horiz-adv-x="355" 
d="M106 321l66 105q-63 0 -105.5 42t-42.5 97q0 56 42 98.5t111 42.5q67 0 108.5 -42.5t41.5 -97.5q0 -36 -26 -83l-123 -208zM177 507q27 0 45.5 16t18.5 42t-18.5 42t-45.5 16q-26 0 -44.5 -16t-18.5 -42t18.5 -42t44.5 -16z" />
    <glyph glyph-name="fraction" horiz-adv-x="168" 
d="M-180 7l471 724l57 -39l-471 -724z" />
    <glyph glyph-name="zero.denominator" horiz-adv-x="386" 
d="M193 412q76 0 119.5 -58t43.5 -150t-43.5 -151t-119.5 -59t-119.5 59t-43.5 151t43.5 150t119.5 58zM193 79q38 0 55 36t17 89q0 52 -16.5 88t-55.5 36q-72 0 -72 -124q0 -125 72 -125z" />
    <glyph glyph-name="one.denominator" horiz-adv-x="323" 
d="M8 275l158 131h85v-406h-93v289l-97 -80z" />
    <glyph glyph-name="two.denominator" horiz-adv-x="362" 
d="M32 0l152 184q1 2 13 16.5t17 22t11 21.5t6 26q0 25 -17.5 41t-45.5 16q-24 0 -40.5 -14.5t-21.5 -29.5l-5 -15l-79 27q1 5 4 13t14.5 28t26 35.5t42 28t59.5 12.5q74 0 114 -42t40 -98q0 -48 -32 -90l-75 -100h111v-82h-294z" />
    <glyph glyph-name="three.denominator" horiz-adv-x="368" 
d="M235 286q0 20 -15.5 32.5t-43.5 12.5q-14 0 -26.5 -4.5t-20 -10.5t-12.5 -12.5t-7 -11.5l-3 -4l-70 38q2 3 5 9t15 21t26.5 26t39.5 20.5t53 9.5q64 0 106.5 -33t42.5 -93q0 -24 -11.5 -42.5t-23.5 -25.5l-12 -6q2 -1 5.5 -2.5t13 -9t16.5 -16.5t13 -26t6 -37
q0 -60 -45 -93.5t-109 -33.5q-32 0 -59 10t-43 24t-27 28t-15 24l-4 10l74 41q2 -6 6 -15.5t23 -25t45 -15.5q31 0 47.5 13.5t16.5 32.5q0 49 -67 49h-22v70h15q27 0 47 11t20 35z" />
    <glyph glyph-name="four.denominator" horiz-adv-x="386" 
d="M4 78l208 328h98v-250h50v-78h-50v-78h-86v78h-220zM140 156h84v134z" />
    <glyph glyph-name="five.denominator" horiz-adv-x="383" 
d="M345 136q0 -65 -47 -103.5t-108 -38.5q-32 0 -59 9.5t-43 22.5t-27 26t-15 22l-4 10l69 46q1 -2 2.5 -5.5t8 -12.5t14.5 -16t22.5 -12.5t31.5 -5.5q30 0 47.5 16.5t17.5 41.5q0 28 -20 45.5t-59 17.5q-25 0 -53 -7.5t-43 -14.5l-16 -7v236h275v-84h-185v-54q19 4 49 4
q58 0 100 -35t42 -101z" />
    <glyph glyph-name="six.denominator" horiz-adv-x="355" 
d="M255 389l-72 -117q63 0 105.5 -41t42.5 -96q0 -56 -42 -98.5t-111 -42.5q-67 0 -108.5 42.5t-41.5 97.5q0 36 26 83l129 218zM178 193q-27 0 -45.5 -16t-18.5 -42t18.5 -42t45.5 -16q26 0 44.5 16t18.5 42t-18.5 42t-44.5 16z" />
    <glyph glyph-name="seven.denominator" horiz-adv-x="333" 
d="M16 322v84h313l-219 -423l-76 41l157 298h-175z" />
    <glyph glyph-name="eight.denominator" horiz-adv-x="368" 
d="M184 412q65 0 104 -33.5t39 -87.5q0 -24 -12.5 -44.5t-24.5 -28.5l-12 -8l6 -3t14 -9t17.5 -16.5t14 -26t6.5 -36.5q0 -54 -41.5 -89.5t-110.5 -35.5t-110.5 35.5t-41.5 89.5q0 20 6 36.5t14.5 26t17 16.5t14.5 10l6 2q-5 3 -13.5 9t-22 27t-13.5 46q0 54 38.5 87
t104.5 33zM184 74q28 0 45 13t17 34t-17 34t-45 13q-29 0 -45.5 -12.5t-16.5 -34.5q0 -21 17 -34t45 -13zM131 289q0 -43 53 -43t53 43t-53 43t-53 -43z" />
    <glyph glyph-name="nine.denominator" horiz-adv-x="355" 
d="M106 27l66 105q-63 0 -105.5 42t-42.5 97q0 56 42 98.5t111 42.5q67 0 108.5 -42.5t41.5 -97.5q0 -36 -26 -83l-123 -208zM177 213q27 0 45.5 16t18.5 42t-18.5 42t-45.5 16q-26 0 -44.5 -16t-18.5 -42t18.5 -42t44.5 -16z" />
    <glyph glyph-name="NULL" horiz-adv-x="0" 
 />
    </font>
</defs>
</svg>
